1 сезон

3 сезон

iTunes

1

iTunes

DUB Netflix

iTunes

13

1 сезон

RePack

30

Deluxe

pack

Легкие деньги

ВАЖНО

ИГРА 18+

pack

RePack

MK11

RePack

jed

RePack

fifa19

RePack

RDR2

RePack

NEED FOR SPEED™ PAYBACK

4 сезон

9 сезон

Бесстыжие 9 сезон

Все сериалы

все сериалы на PB.wtf

RePack

FAR CRY 5

Anonymous, доброе утро, мы не успеваем до 1 числа собрать деньги на оплату серверов, помогите нам пожалуйста в это трудное время. В качестве благодарности мы отключим Вам всю рекламу на сайте (укажите свой ник в строку Ваше имя)!

×
  
Magnet ссылка

Низкое зимнее солнце / Low Winter Sun (Эйдриан Шерголд / Adrian Shergold) [2006, драма, криминал, триллер, DVDRip] [VO] (Студия "Райдо") piratbit.pw

Низкое зимнее солнце через торрент piratbit.pw

Размер: 1.46 GB | Добавлен: 7 лет 10 мес. назад | Торрент скачан:130 раз
Скачать  

19-08-2013 12:57 Низкое зимнее солнце Скачать торрент  

Низкое зимнее солнце / Low Winter Sun Год выпуска: 2006
Страна: Великобритания, США
Жанр: драма, криминал, триллер
Продолжительность: 02:01:32
Перевод: Одноголосный (закадровый) [Студия "Райдо" / Сергей Калугин]
Cубтитры: нет

Режиссер: Эйдриан Шерголд / Adrian Shergold

В ролях: Марк Стронг, Брайан МакКарди, Фиона Белл, Пол Донелли, Мишель Дункан, Берн, Горман, Мерседес Гроуэр, Пол Хиггинс и др.

Описание: Детективный нуар о работе шотландской полиции. Два полицейских детектива Эдинбурга убивают третьего, и обставляют всё так, словно тот совершил самоубийство. Труп сажают за руль автомобиля, который сбрасывают с пирса. И всё бы ничего, если бы при подъёме этой машины не нашли два трупа! Второй оказался в багажнике с отрубленными руками и без головы... Для чего полицейским понадобилось убивать коллегу, и как они теперь выкрутятся?




Ограничение по возрасту до 15 лет, но я бы поставил, как минимум 18+
В фильме присутствуют натуралистичные сцены, сцены насилия и ненормативная лексика!


Перевод на русский язык: Юлии Вака и Евгении Орловой

Качество видео: DVDRip
Формат видео: AVI
Видео кодек: XviD
Аудио кодек: MP3
Видео: 720x416 (1.73:1), 25 fps, XviD build 50 ~1519 kbps avg, 0.20 bit/pixel
Аудио: 48 kHz, MPEG Layer 3, 2 ch, ~192.00 kbps avg
Общее
Полное имя : G:torrentsLow Winter SunLow Winter Sun.avi
Формат : AVI
Формат/Информация : Audio Video Interleave
Размер файла : 1,46 Гбайт
Продолжительность : 2 ч. 1 м.
Общий поток : 1721 Кбит/сек
Программа кодирования : VirtualDubMod 1.5.10.2 (build 2540/release)
Библиотека кодирования : VirtualDubMod build 2540/release
Видео
Идентификатор : 0
Формат : MPEG-4 Visual
Профиль формата : Advanced Simple@L5
Параметр BVOP формата : 1
Параметр QPel формата : Нет
Параметр GMC формата : Без точки перехода
Параметр матрицы формата : Выборочная
Идентификатор кодека : XVID
Идентификатор кодека/Подсказка : XviD
Продолжительность : 2 ч. 1 м.
Битрейт : 1519 Кбит/сек
Ширина : 720 пикселей
Высота : 416 пикселей
Соотношение сторон : 1,731
Частота кадров : 25,000 кадров/сек
Цветовое пространство : YUV
Субдискретизация насыщенности : 4:2:0
Битовая глубина : 8 бит
Тип развёртки : Прогрессивная
Метод сжатия : С потерями
Бит/(Пиксели*Кадры) : 0.203
Размер потока : 1,29 Гбайт (88%)
Библиотека кодирования : XviD 1.2.1 (UTC 2008-12-04)
Аудио
Идентификатор : 1
Формат : MPEG Audio
Версия формата : Version 1
Профиль формата : Layer 3
Режим : Joint stereo
Идентификатор кодека : 55
Идентификатор кодека/Подсказка : MP3
Продолжительность : 2 ч. 1 м.
Вид битрейта : Постоянный
Битрейт : 192 Кбит/сек
Каналы : 2 канала
Частота : 48,0 КГц
Метод сжатия : С потерями
Размер потока : 167 Мбайт (11%)
Выравнивание : Соединение по промежуткам
Продолжительность промежутка : 40 мс. (1,00 видеокадр)
Время предзагрузки промежутка : 504 мс.
Язык : Russian
piratbit.pw



Скачать Низкое зимнее солнце через торрент http://i43.fastpic.ru/big/2012/0904/84/480be0419b161bb1fbf510b300847384.png Скачать фильм Низкое зимнее солнце через торрент бесплантно в хорошем качестве Описание: Детективный нуар о работе шотландской полиции. Два полицейских детектива Эдинбурга убивают третьего, и обставляют всё так, словно ... 10 10 8
Info! Золотая раздача, скачанное не засчитывается.
Торрент: Зарегистрирован [2013-08-19 12:57] · скачан: 130 раз
Статус: √ проверено
Размер: 1.46 GB
Как cкачать? Как скачать Низкое зимнее солнце через торрент | UTorrent

% Раздел Тема Автор DL S | L
Зарубежные сериалы [ 5.37 GB ] Низкое зимнее солнце / Low Winter Sun / Сезон: 1 / Серии: 1-10 из 10 [2013 WEB-DLRip] MVO + Original Messa-fan Скачать
1 | 0
Зарубежные сериалы [ 13.32 GB ] Низкое зимнее солнце / Low Winter Sun / Сезон: 1 / Серии: 1-10 из 10 [2013 WEB-DL 720p] MVO + Original Messa-fan Скачать
1 | 0

28-11-2019 20:33  

Отключить всю рекламу на сайте

19-08-2013 13:01 Низкое зимнее солнце Скачать торрент  

Вот с этого оригинального фильма америкосы сделали римэйк длинною в сериал piratbit.pw



    Дорогой пользователь! Огромная просьба, поблагодарите релизера, оцените раздачу и оставьте свои комментарий, если Вы скачали Низкое зимнее солнце через торрент бесплатно! Внесите свою лепту в развитие PiratBit!
    Комментировать посты могут только пользователи прошедшие не сложную регистрацию
    Показать сообщения:    

    Низкое зимнее солнце через торрент
    Скачать бесплатно Низкое зимнее солнце
    Низкое зимнее солнце скачать торрент
    Низкое зимнее солнце смотреть онлайн
    Cкачать фильм Низкое зимнее солнце бесплатно
    Низкое зимнее солнце скачать торрент в хорошем качестве
    Низкое зимнее солнце смотреть онлайн бесплатно в хорошем качестве


    Вы не можете начинать темы
    Вы не можете отвечать на сообщения
    Вы не можете редактировать свои сообщения
    Вы не можете удалять свои сообщения
    Вы не можете голосовать в опросах
    Вы не можете прикреплять файлы к сообщениям
    Вы можете скачивать файлы