1 сезон

1 сезон

iTunes

1

КиноПоиск HD

Кинопоиск HD

iTunes

13

1 сезон

RePack

30

Новинка

ВАЖНО

ИГРА 18+

pack

RePack

MK11
pack

Легкие деньги

RePack

jed

RePack

fifa19

RePack

RDR2

RePack

NEED FOR SPEED™ PAYBACK

4 сезон

9 сезон

Бесстыжие 9 сезон

Все сериалы

все сериалы на PB.wtf

RePack

FAR CRY 5
  
Magnet ссылка

Другая жизнь Ришара Кемпа / L'autre vie de Richard Kemp (Жерминаль Альварез) [2013 г., фэнтези, триллер, криминал, HDRip, Авторский (М.Чадов)] piratbit.pw

Другая жизнь Ришара Кемпа через торрент piratbit.pw

Размер: 2.19 GB | Добавлен: 7 лет 1 мес. назад | Торрент скачан:291 раз
Скачать  

19-03-2014 16:55 Другая жизнь Ришара Кемпа Скачать торрент  

Другая жизнь Ришара Кемпа / L'autre vie de Richard Kemp
Год выпуска: 2013
Страна: Франция / Haut et Court, Direct Cinéma, Direct 8
Жанр: фэнтези, триллер, криминал.
Продолжительность: 01:40:44
Перевод: Авторский (М.Чадов)

Режиссер: Жерминаль Альварез



В ролях: Жан-Юг Англад, Мелани Тьерри, Филиппе Беродот, Жан-Анри Компере, Пьер Мур, Фридерик Сорель, Адриен Кошетье, Эльза Жаллес.

Описание: Расследуя очередное дело, капитан полиции Ришар Кемп обнаруживает, что новое убийство как две капли воды похоже на работу серийного маньяка, который орудовал в этих краях двадцать с лишним лет назад. Мистическим образом Ришар Кемп переносится в май 1989 года, ровно за день до того, как маньяк совершит первое убийство. Кемп решает изменить прошлое и поймать убийцу ещё до того, как тот совершит преступление, но ему активно мешает молодой и амбициозный детектив — не кто иной, как он сам.

Качество: HDRip
Формат: AVI
Видео кодек: XviD
Аудио кодек: AC3
Видео: 720x304 (2.37:1), 23.976 fps, XviD build 50 ~2674 kbps avg, 0.51 bit/pixel
Аудио: 48 kHz, AC3 Dolby Digital, 3/2 (L,C,R,l,r) + LFE ch, ~448 kbps

скриншот   скриншот   скриншот   скриншот   скриншот  

Общее
Полное имя : H:киноBack.In.Crime.2013.HDRip.avi
Формат : AVI
Формат/Информация : Audio Video Interleave
Профиль формата : OpenDML
Размер файла : 2,19 Гбайт
Продолжительность : 1 ч. 40 м.
Общий поток : 3119 Кбит/сек
Программа кодирования : VirtualDubMod 1.5.10.3 | www.virtualdub-fr.org || (build 2550/release)
Библиотека кодирования : VirtualDubMod build 2550/release

Видео
Идентификатор : 0
Формат : MPEG-4 Visual
Профиль формата : Advanced Simple@L5
Параметр BVOP формата : 2
Параметр QPel формата : Нет
Параметр GMC формата : Без точки перехода
Параметр матрицы формата : Default (H.263)
Идентификатор кодека : XVID
Идентификатор кодека/Подсказка : XviD
Продолжительность : 1 ч. 40 м.
Битрейт : 2670 Кбит/сек
Ширина : 720 пикселей
Высота : 304 пикселя
Соотношение сторон : 2,35:1
Частота кадров : 23,976 кадра/сек
Цветовое пространство : YUV
Субдискретизация насыщенности : 4:2:0
Битовая глубина : 8 бит
Тип развёртки : Прогрессивная
Метод сжатия : С потерями
Бит/(Пиксели*Кадры) : 0.509
Размер потока : 1,88 Гбайт (86%)
Библиотека кодирования : XviD 1.2.1 (UTC 2008-12-04)

Аудио
Идентификатор : 1
Формат : AC-3
Формат/Информация : Audio Coding 3
Расширение режима : CM (complete main)
Параметр Endianness формата : Big
Идентификатор кодека : 2000
Продолжительность : 1 ч. 38 м.
Вид битрейта : Постоянный
Битрейт : 448 Кбит/сек
Каналы : 6 каналов
Расположение каналов : Front: L C R, Side: L R, LFE
Частота : 48,0 КГц
Битовая глубина : 16 бит
Метод сжатия : С потерями
Размер потока : 315 Мбайт (14%)
Выравнивание : Разделение по промежуткам
Продолжительность промежутка : 43 мс. (1,03 видеокадр)
Время предзагрузки промежутка : 500 мс.

piratbit.pw



Скачать Другая жизнь Ришара Кемпа через торрент https://pic.kartinco.top/images/6/xamwn.jpg Скачать фильм Другая жизнь Ришара Кемпа через торрент бесплантно в хорошем качестве Описание: Расследуя очередное дело, капитан полиции Ришар Кемп обнаруживает, что новое убийство как две капли воды похоже на работу ... 9.3 10 9
Торрент: Зарегистрирован [2014-03-19 16:55] · скачан: 291 раз
Статус: √ проверено
Размер: 2.19 GB
Как cкачать? Как скачать Другая жизнь Ришара Кемпа через торрент | UTorrent

28-11-2019 20:33  

Отключить всю рекламу на сайте

19-03-2014 18:39 Другая жизнь Ришара Кемпа Скачать торрент  

Типа Дежавю что ли ?piratbit.pw



    Дорогой пользователь! Огромная просьба, поблагодарите релизера, оцените раздачу и оставьте свои комментарий, если Вы скачали Другая жизнь Ришара Кемпа через торрент бесплатно! Внесите свою лепту в развитие PiratBit!
    Комментировать посты могут только пользователи прошедшие не сложную регистрацию
    Показать сообщения:    

    Другая жизнь Ришара Кемпа через торрент
    Скачать бесплатно Другая жизнь Ришара Кемпа
    Другая жизнь Ришара Кемпа скачать торрент
    Другая жизнь Ришара Кемпа смотреть онлайн
    Cкачать фильм Другая жизнь Ришара Кемпа бесплатно
    Другая жизнь Ришара Кемпа скачать торрент в хорошем качестве
    Другая жизнь Ришара Кемпа смотреть онлайн бесплатно в хорошем качестве


    Вы не можете начинать темы
    Вы не можете отвечать на сообщения
    Вы не можете редактировать свои сообщения
    Вы не можете удалять свои сообщения
    Вы не можете голосовать в опросах
    Вы не можете прикреплять файлы к сообщениям
    Вы можете скачивать файлы