Ссылка на приватное зеркало нашего сайта всего за 1$. Внимание количество ограничено!!!

2 сезон

iTunes

1 сезон

1

2 сезон

2 сезон

iTunes

1 сезон

RePack

30

Новинка

ВАЖНО

ИГРА 18+

pack

RePack

MK11
pack

Забери бонус

RePack

jed

!!Акция!!

Alien_Rage

RePack

fifa19

RePack

Assassins Creed: Odyssey

RePack

NEED FOR SPEED™ PAYBACK

4 сезон

9 сезон

Бесстыжие 9 сезон

Все сериалы

все сериалы на PB.wtf

RePack

FAR CRY 5
  

Господин Иллюминатор / Mr Hublot (Лорен Уитц / Laurent Witz, Александр Эспигарес / Alexandre Espigares) [2013, Люксембург, Франция, мультфильм, короткометражка, фэнтези, HDTVRip] piratbit.pw

Господин Иллюминатор через торрент piratbit.pw

Размер: 172 MB | Добавлен: 6 лет 8 мес. назад | Торрент скачан:277 раз
Скачать  

17-03-2014 18:26 Господин Иллюминатор Скачать торрент  

Премия Оскар 2014: Лучший короткометражный анимационный фильм.
Господин Иллюминатор / Mr Hublot

«According to Stéphane Halleux's Universe»

  • Год выпуска:2013
  • Страна:Люксембург, Франция
  • Жанр: мультфильм, короткометражка, фэнтези, комедия, семейный
  • Продолжительность: 00:11:02
  • Перевод: Не требуется

  • Субтитры: Нет
  • Режиссер:Лорен Уитц / Laurent Witz, Александр Эспигарес / Alexandre Espigares
    • Описание:
      Главный герой живет в абсурдном, постиндустриальном мире, где исчезла природа и большинство «человеческих» отношений.

    Мировая премьера:15 октября 2013
    • Качество:HDTVRip
    • Формат:AVI
    • Видео кодек: XviD
    • Аудио кодек:MP3
    • Видео: XviD, 704x320 (2.2:1), 2036 kbps, 25 fps, 0,362 bpp
    • Аудио: MP3 / 2.0 / 48 kHz / 128 kbps /


    Код:

    General
    Complete name                            : D:ТорентыMr Hublot.2013.HDTVRip.avi
    Format                                   : AVI
    Format/Info                              : Audio Video Interleave
    File size                                : 172 MiB
    Duration                                 : 11mn 2s
    Overall bit rate                         : 2 174 Kbps
    Writing application                      : VirtualDubMod 1.5.10.3 (build 2550/release)
    Writing library                          : VirtualDubMod build 2550/release

    Video
    ID                                       : 0
    Format                                   : MPEG-4 Visual
    Format profile                           : Advanced Simple@L5
    Format settings, BVOP                    : 2
    Format settings, QPel                    : No
    Format settings, GMC                     : No warppoints
    Format settings, Matrix                  : Custom
    Codec ID                                 : XVID
    Codec ID/Hint                            : XviD
    Duration                                 : 11mn 2s
    Bit rate                                 : 2 036 Kbps
    Width                                    : 704 pixels
    Height                                   : 320 pixels
    Display aspect ratio                     : 2.2:1
    Frame rate                               : 25.000 fps
    Color space                              : YUV
    Chroma subsampling                       : 4:2:0
    Bit depth                                : 8 bits
    Scan type                                : Progressive
    Compression mode                         : Lossy
    Bits/(Pixel*Frame)                       : 0.362
    Stream size                              : 161 MiB (94%)
    Writing library                          : XviD 65

    Audio
    ID                                       : 1
    Format                                   : MPEG Audio
    Format version                           : Version 1
    Format profile                           : Layer 3
    Mode                                     : Joint stereo
    Mode extension                           : MS Stereo
    Codec ID                                 : 55
    Codec ID/Hint                            : MP3
    Duration                                 : 11mn 1s
    Bit rate mode                            : Constant
    Bit rate                                 : 128 Kbps
    Channel(s)                               : 2 channels
    Sampling rate                            : 48.0 KHz
    Compression mode                         : Lossy
    Stream size                              : 10.1 MiB (6%)
    Alignment                                : Aligned on interleaves
    Interleave, duration                     : 40 ms (1.00 video frame)
    Interleave, preload duration             : 504 ms
    Writing library                          : LAME3.99r
    Encoding settings                        : -m j -V 4 -q 3 -lowpass 17 -b 128

    Скриншоты:

    Трейлеры к фильмам [2014]
    © Оформление by Raven piratbit.pw



  • Скачать Господин Иллюминатор через торрент http://i4.imageban.ru/out/2014/03/17/6e67e061aeea9e9a0b0a3cd4f5e81963.jpg Скачать фильм Господин Иллюминатор через торрент бесплантно в хорошем качестве Описание:Главный герой живет в абсурдном, постиндустриальном мире, где исчезла природа и большинство «человеческих» отношений. Мировая ... 10 10 12
    Торрент: Зарегистрирован [2014-03-17 18:26] · скачан: 277 раз
    Статус: √ проверено
    Размер: 172 MB
    Как cкачать? Как скачать Господин Иллюминатор через торрент | qTorrent

    28-11-2019 20:33  

    Отключить всю рекламу на сайте

      Дорогой пользователь! Огромная просьба, поблагодарите релизера, оцените раздачу и оставьте свои комментарий, если Вы скачали Господин Иллюминатор через торрент бесплатно! Внесите свою лепту в развитие PiratBit!
      Комментировать посты могут только пользователи прошедшие не сложную регистрацию
      Показать сообщения:    

      Господин Иллюминатор через торрент
      Скачать бесплатно Господин Иллюминатор
      Господин Иллюминатор скачать торрент
      Господин Иллюминатор смотреть онлайн
      Cкачать фильм Господин Иллюминатор бесплатно
      Господин Иллюминатор скачать торрент в хорошем качестве
      Господин Иллюминатор смотреть онлайн бесплатно в хорошем качестве


      Вы не можете начинать темы
      Вы не можете отвечать на сообщения
      Вы не можете редактировать свои сообщения
      Вы не можете удалять свои сообщения
      Вы не можете голосовать в опросах
      Вы не можете прикреплять файлы к сообщениям
      Вы можете скачивать файлы