новый адрес
Мега распродажа FORZA HORIZON 4 ULTIMATE+ВСЕ DLC+ОНЛАЙН всего за 499р. 349 руб. (супер цена). Внимание количество ограничено!!!

iTunes

1+1

iTunes

мы

iTunes

1

iTunes

Чернобыль

iTunes

Ральф против интернета

Лицензия

ПШазам

Лицензия

Игра престолов

Лицензия

30
pack

ВАЖНО

!!Акция!!

Alien_RageХит недели

RePack

Resident Evil 21

ИГРА 18+

pack

RePack

Metro:Exodus

!!Акция!!

Alien_Rage

RePack

fifa19

RePack

Assassins Creed: Odyssey

RePack

NEED FOR SPEED™ PAYBACK

3 сезон

9 сезон

Бесстыжие 9 сезон

Все сериалы

все сериалы на PB.wtf

RePack

FAR CRY 5
Ребята, катастрофически не хватает 1900р. для оплаты серверов за Октябрь (всвязи с блокировками трафик упал в 3 раза), 1-2р., выручайте.
  

Ведьмы из Сугаррамурди / Las brujas de Zugarramurdi (Алекс де ла Иглесиа / Álex de la Iglesia) [2013, Испания, Франция, ужасы, драма, комедия, HDRip] Dub Лицензия piratbit.pw

Ведьмы из Сугаррамурди через торрент piratbit.pw

Размер: 1.46 GB | Добавлен: 5 лет 8 мес. назад | Торрент скачан:1014 раз
Скачать  

13-03-2014 14:04 Ведьмы из Сугаррамурди Скачать торрент  

Ведьмы из Сугаррамурди / Las brujas de Zugarramurdi
Страна: Испания, Франция / Enrique Cerezo Producciones Cinematográficas S.A., La Ferme! Productions, arte Fr
Жанр: ужасы, драма, комедия
Год выпуска: 2013
Продолжительность: 01:54:03
Перевод: Профессиональный (дублированный) Лицензия
Cубтитры: нет

Режиссер: Алекс де ла Иглесиа / Álex de la Iglesia

В ролях: Марио Касас, Уго Силва, Хавьер Ботет, Сантьяго Сегура, Каролина Банг, Кармен Маура, Карлос Аресес, Секун де ла Роса, Макарена Гомес, Пепон Ниэто

Описание: Трое незадачливых воришек попадают в заколдованный город, где на протяжении веков правят бал коварные ведьмы. Задача героев проста — унести ноги из страшного места. Для этого надо постараться не влюбиться в обитательниц этого гиблого места… Сюжет основан на подлинной истории, которая случилась здесь в начале XVII века, когда одна из жительниц деревни заявила, что она ведьма и регулярно участвует в шабашах в близлежащих пещерах со своими соседками. Тогда Святая Инквизиция арестовала почти всё население Сугаррамурди и окрестных сёл (около 300 человек), устроив суд по делу «Ведьминской деревни», который длился два года. В результате в 1610 году 40 жителей деревни были обвинены в колдовстве, а 11 из них — сожжены на костре. С тех пор Сугаррамурди запечатлелся в коллективной памяти как обиталище ведьм.


Качество видео: HDRip [Исходник BDRip 720p]
Формат видео: AVI
Видео кодек: XviD
Аудио кодек: AC3
Видео: 720x304 (2.37:1), 23.976 fps, XviD build 73 ~1437 kbps avg, 0.27 bit/pixel
Аудио: 48 kHz, AC3 Dolby Digital, 3/2 (L,C,R,l,r) + LFE ch, ~384 kbps
Раздача от:
D:Мои рипыVedmy.iz.Sugarramurdi.2013.hdrip.dexter_lex.avi
General
Complete name : D:Мои рипыVedmy.iz.Sugarramurdi.2013.hdrip.dexter_lex.avi
Format : AVI
Format/Info : Audio Video Interleave
File size : 1.46 GiB
Duration : 1h 54mn
Overall bit rate : 1 831 Kbps
Writing application : VirtualDubMod 1.5.10.3 | www.virtualdub-fr.org || (build 2550/release)
Writing library : VirtualDubMod build 2550/release
Video #0
ID : 0
Format : MPEG-4 Visual
Format profile : Advanced Simple@L5
Format settings, BVOP : 1
Format settings, QPel : No
Format settings, GMC : No warppoints
Format settings, Matrix : Custom
Codec ID : XVID
Codec ID/Hint : XviD
Duration : 1h 54mn
Bit rate : 1 438 Kbps
Width : 720 pixels
Height : 304 pixels
Display aspect ratio : 2.35:1
Frame rate : 23.976 fps
Color space : YUV
Chroma subsampling : 4:2:0
Bit depth : 8 bits
Scan type : Progressive
Compression mode : Lossy
Bits/(Pixel*Frame) : 0.274
Stream size : 1.15 GiB (79%)
Writing library : XviD 73
Audio #1
ID : 1
Format : AC-3
Format/Info : Audio Coding 3
Mode extension : CM (complete main)
Codec ID : 2000
Duration : 1h 54mn
Bit rate mode : Constant
Bit rate : 384 Kbps
Channel(s) : 6 channels
Channel positions : Front: L C R, Side: L R, LFE
Sampling rate : 48.0 KHz
Bit depth : 16 bits
Compression mode : Lossy
Stream size : 313 MiB (21%)
Alignment : Split accross interleaves
Interleave, duration : 42 ms (1.00 video frame)
Interleave, preload duration : 500 ms
piratbit.pw



Скачать Ведьмы из Сугаррамурди через торрент http://i60.fastpic.ru/big/2014/0313/c5/005e61124823678ca5eceb7c3b9e73c5.jpg Скачать фильм Ведьмы из Сугаррамурди через торрент бесплантно в хорошем качестве Описание: Трое незадачливых воришек попадают в заколдованный город, где на протяжении веков правят бал коварные ведьмы. Задача героев ... 8.8 10 25
Торрент: Зарегистрирован [2014-03-13 14:04] · скачан: 1 014 раз
Статус: √ проверено
Размер: 1.46 GB
Как cкачать? Как скачать Ведьмы из Сугаррамурди через торрент | qTorrent

% Раздел Тема Автор DL S | L
Фильмы 2013 [DVDrip, WEB-DLRip, HDrip] [ 2.18 GB ] Ведьмы из Сугаррамурди / Las brujas de Zugarramurdi [2013 BDRip-AVC] DUB potroks Скачать
1 | 0


>> Регистрируемся здесь <<






Отзывы и комментарии о схеме читаем и пишем здесь: ---> Отзывы и комментарии о схеме

Новые благодарочки в телеграм довольных пользователей:
скриншот   скриншот   скриншот   скриншот   скриншот

14-03-2014 19:36 Ведьмы из Сугаррамурди Скачать торрент  

это что-то с чем-то)) вчера смотрел, долго у меня пылился на компе...
черный юмор...кто-то выключит на 20мин, кто-то на 40мин, кто-то досмотрит до конца....в принципе не важно когда вы закончите смотреть этот фильм..впечетление у всех будет одинаково)
вообщем черный юмор...да даже не особо и юмор...нагрузки не несет никакой, на один раз...или на полраза)piratbit.pw



    Дорогой пользователь! Огромная просьба, поблагодарите релизера, оцените раздачу и оставьте свои комментарий, если Вы скачали Ведьмы из Сугаррамурди через торрент бесплатно! Внесите свою лепту в развитие PiratBit!
    Комментировать посты могут только пользователи прошедшие не сложную регистрацию
    Показать сообщения:    

    Ведьмы из Сугаррамурди через торрент
    Скачать бесплатно Ведьмы из Сугаррамурди
    Ведьмы из Сугаррамурди скачать торрент
    Ведьмы из Сугаррамурди смотреть онлайн
    Cкачать фильм Ведьмы из Сугаррамурди бесплатно
    Ведьмы из Сугаррамурди скачать торрент в хорошем качестве
    Ведьмы из Сугаррамурди смотреть онлайн бесплатно в хорошем качестве


    Вы не можете начинать темы
    Вы не можете отвечать на сообщения
    Вы не можете редактировать свои сообщения
    Вы не можете удалять свои сообщения
    Вы не можете голосовать в опросах
    Вы не можете прикреплять файлы к сообщениям
    Вы можете скачивать файлы