1 сезон

1 сезон

iTunes

1

КиноПоиск HD

Кинопоиск HD

iTunes

13

1 сезон

RePack

30

Новинка

ВАЖНО

ИГРА 18+

pack

RePack

MK11
pack

Легкие деньги

RePack

jed

RePack

fifa19

RePack

RDR2

RePack

NEED FOR SPEED™ PAYBACK

4 сезон

9 сезон

Бесстыжие 9 сезон

Все сериалы

все сериалы на PB.wtf

RePack

FAR CRY 5
  
Magnet ссылка

«V» значит Вендетта / V for Vendetta (Джеймс МакТиг / James McTeigue) [2005 г., фантастика, боевик, триллер, BDRip] [AVO] (А.Гаврилов) piratbit.pw

«V» значит Вендетта через торрент piratbit.pw

Размер: 2.24 GB | Добавлен: 7 лет 1 мес. назад | Торрент скачан:84 раза
Скачать  

11-03-2014 20:48 «V» значит Вендетта Скачать торрент  

«V» значит Вендетта / V for Vendetta
Год выпуска: 2005
Производство: Германия, США, Великобритания
Жанр: фантастика, боевик, триллер
Продолжительность: 02:12:32
Перевод: Авторский (одноголосый, закадровый) [А.Гаврилов]
Субтитры: отсутствуют

Режиссер: Джеймс МакТиг / James McTeigue

В ролях: Натали Портман, Хьюго Уивинг, Стивен Ри, Стивен Фрай, Джон Хёрт, Тим Пиготт-Смит, Руперт Грейвз, Роджер Аллам, Бен Майлз, Шинейд Кьюсак

Описание: Альтернативное будущее. В Британии установилась фашистская диктатура, инакомыслие и ислам объявлены вне закона. На ее территории живет и действует «В» — террорист и борец за свободу, носящий фарфоровую маску, скрывающую его личность. Он ведет жестокую партизанскую войну с режимом. В этой войне он привлекает на свою сторону Иви Хаммонд — молодую женщину, которую вырвал из лап тайной полиции.



Качество видео: BDRip
Контейнер: AVI
Видео кодек: XviD
Аудио кодек: AC3
Видео: 720x304 (2.37:1), 23.976 fps, XviD build 50 ~1965 kbps avg, 0.37 bit/pixel
Аудио: 48 kHz, AC3 Dolby Digital, 3/2 (L,C,R,l,r) + LFE ch, ~448 kbps - А.Гаврилов

Цитата:

За дорогу Гаврилова спасибо zeleniydzhan.
цитата:
Дорожка Гаврилова с чистого голоса . За работу над дорогой с переводом Гаврилова спасибо Bloodymetal .

Автор рипа DeASS
General
Complete name : E:INTERNETV for Vendetta.2005 BDRip.avi
Format : AVI
Format/Info : Audio Video Interleave
Format profile : OpenDML
File size : 2.24 GiB
Duration : 2h 12mn
Overall bit rate : 2 421 Kbps
Writing application : VirtualDubMod 1.5.10.3 (build 2550/release)

Video
ID : 0
Format : MPEG-4 Visual
Format profile : Advanced Simple@L5
Format settings, BVOP : 1
Format settings, QPel : No
Format settings, GMC : No warppoints
Format settings, Matrix : Custom
Codec ID : XVID
Codec ID/Hint : XviD
Duration : 2h 12mn
Bit rate : 1 961 Kbps
Width : 720 pixels
Height : 304 pixels
Display aspect ratio : 2.35:1
Frame rate : 23.976 fps
Color space : YUV
Chroma subsampling : 4:2:0
Bit depth : 8 bits
Scan type : Progressive
Compression mode : Lossy
Bits/(Pixel*Frame) : 0.374
Stream size : 1.82 GiB (81%)
Writing library : XviD 1.2.1 (UTC 2008-12-04)

Audio
ID : 1
Format : AC-3
Format/Info : Audio Coding 3
Mode extension : CM (complete main)
Codec ID : 2000
Duration : 2h 12mn
Bit rate mode : Constant
Bit rate : 448 Kbps
Channel(s) : 6 channels
Channel positions : Front: L C R, Side: L R, LFE
Sampling rate : 48.0 KHz
Bit depth : 16 bits
Compression mode : Lossy
Stream size : 425 MiB (19%)
Alignment : Split accross interleaves
Interleave, duration : 42 ms (1.00 video frame)
Interleave, preload duration : 500 ms
Релиз сугубо для ценителей авторских переводов и поклонников Андрея Гаврилова!piratbit.pw



Скачать «V» значит Вендетта через торрент http://i57.fastpic.ru/big/2014/0306/f6/71269444a6121ceb3875d370fe5550f6.jpg Скачать фильм «V» значит Вендетта через торрент бесплантно в хорошем качестве Описание: Альтернативное будущее. В Британии установилась фашистская диктатура, инакомыслие и ислам объявлены вне закона. На ее территории ... 10 10 10
Info! Золотая раздача, скачанное не засчитывается.
Торрент: Зарегистрирован [2014-03-11 20:48] · скачан: 84 раз
Статус: √ проверено
Размер: 2.24 GB
Как cкачать? Как скачать «V» значит Вендетта через торрент | UTorrent

% Раздел Тема Автор DL S | L
Ultra HD (UHD: 2K, 4K, 8K) — видео сверхвысокой чёткости [ 68.82 GB ] «V» значит Вендетта / V for Vendetta [2005 UHD BDRemux 2160p] DUB [] +DVO+2xAVO bober100 Скачать
2 | 0
Фильмы [HD 720p, 1080p] (Хороший звук DUB, MVO) [ 7.75 GB ] «V» значит Вендетта / V for Vendetta [2005 антиутопия BDRip 720p от _denis_100 / NNNB] DUB + DVO + 2xAVO _denis_100 Скачать
1 | 0
Фильмы [HD 720p, 1080p] (Хороший звук DUB, MVO) [ 12.19 GB ] «V» значит Вендетта / V for Vendetta [2006 BDRip 1080p] smaster Скачать
1 | 0
Фильмы 2001-2005 [ 2.54 GB ] «V» значит Вендетта / V for Vendetta [2005 BDRip] -=BIGBOSS=- Скачать
2 | 0
Фильмы 2001-2005 [ 3.14 GB ] «V» значит Вендетта / V for Vendetta [2005 BDRip-AVC DUB] Mr. Freeman Скачать
1 | 0
Фильмы [HD 720p, 1080p] (Хороший звук DUB, MVO) [ 4.37 GB ] «V» значит Вендетта / V for Vendetta [2005 BDRip 720p / DVD5 ] diletant Скачать
1 | 0
Фильмы 2001-2005 [ 1.97 GB ] «V» значит Вендетта / V for Vendetta [2005 DVDRip] nitles666 Скачать
1 | 0

28-11-2019 20:33  

Отключить всю рекламу на сайте

    Дорогой пользователь! Огромная просьба, поблагодарите релизера, оцените раздачу и оставьте свои комментарий, если Вы скачали «V» значит Вендетта через торрент бесплатно! Внесите свою лепту в развитие PiratBit!
    Комментировать посты могут только пользователи прошедшие не сложную регистрацию
    Показать сообщения:    

    «V» значит Вендетта через торрент
    Скачать бесплатно «V» значит Вендетта
    «V» значит Вендетта скачать торрент
    «V» значит Вендетта смотреть онлайн
    Cкачать фильм «V» значит Вендетта бесплатно
    «V» значит Вендетта скачать торрент в хорошем качестве
    «V» значит Вендетта смотреть онлайн бесплатно в хорошем качестве


    Вы не можете начинать темы
    Вы не можете отвечать на сообщения
    Вы не можете редактировать свои сообщения
    Вы не можете удалять свои сообщения
    Вы не можете голосовать в опросах
    Вы не можете прикреплять файлы к сообщениям
    Вы можете скачивать файлы