1 сезон

3 сезон

iTunes

1

iTunes

DUB Netflix

iTunes

13

1 сезон

RePack

30

Deluxe

pack

Легкие деньги

ВАЖНО

ИГРА 18+

pack

RePack

MK11

RePack

jed

RePack

fifa19

RePack

RDR2

RePack

NEED FOR SPEED™ PAYBACK

4 сезон

9 сезон

Бесстыжие 9 сезон

Все сериалы

все сериалы на PB.wtf

RePack

FAR CRY 5

Anonymous, доброй ночи, мы не успеваем до 1 числа собрать деньги на оплату серверов, помогите нам пожалуйста в это трудное время. В качестве благодарности мы отключим Вам всю рекламу на сайте (укажите свой ник в строку Ваше имя)!

×
  
Magnet ссылка

Нефть / There Will Be Blood (Пол Томас Андерсон / Paul Thomas Anderson) [2007, США, драма, HDRip-AVC] Dub piratbit.pw

Нефть через торрент piratbit.pw

Раздают: 1 [ 0 KB/s ]
Размер: 1.45 GB | Добавлен: 7 лет 3 мес. назад | Торрент скачан:640 раз
Скачать  

11-03-2014 13:38 Нефть Скачать торрент  

Нефть / There Will Be Blood
Год выпуска: 2007
Страна: США
Жанр: драма
Продолжительность: 02:38:25
Перевод: Профессиональный (дублированный)
Cубтитры: нет

Режиссёр: Пол Томас Андерсон / Paul Thomas Anderson

В ролях: Дэниэл Дэй-Льюис, Пол Дано, Кевин Дж. О’Коннор, Мартин Стрингер, Джейкоб Стрингер, Мэттью Браден Стрингер, Кьяран Хайндс, Диллон Фризье, Джозеф Массей, Бэрри Дел Шерман, Расселл Харвард, Харрисон Тейлор, Стоктон Тейлор, Коллин Фой, Пол Ф. Томпкинс, Кевин Брезнахан, Джим Мескимен, Эрика Салливан, Рэндолл Карвер, Коко Ли, Сидни МакКаллистер, Дэвид Уиллис, Кристин Олейничак, Келли Хилл, Джеймс Дауни, Дэн Суоллоу, Роберт Эрбер, Боб Белл, Дэвид Уильямс, Джой Роулз, Дэвид Уоршофски, Ганс Хоус, Боб Бок

Описание:
Экранизация романа «Нефть» классика американской литературы Эптона Синклера. Действие книги происходит в конце 1920-х в Калифорнии и описывает взлет нефтедобывающей компании, принадлежащей амбициозному и бездушному магнату Плейнвью.


Качество видео: HDRip-AVC [Исходник BDRip 1080p]
Формат видео: MKV
Видео кодек: H.264
Аудио кодек: MP3
Видео: 928x388 (2.35:1), 23.976 fps, H264 ~ 1 183 Kbps, 0.137 bit/pixel
Аудио: 48 kHz, MPEG Layer 3, 2 ch, ~128.00 kbps avg
Раздача от:
D:Мои рипыThere.Will.Be.Blood.hdrip-avc.dexter_lex.mkv
General
Unique ID : 206073401059281077724953056868805548226 (0x9B084B1B39BDDD2EA89A084D01D698C2)
Complete name : D:Мои рипыThere.Will.Be.Blood.hdrip-avc.dexter_lex.mkv
Format : Matroska
Format version : Version 2
File size : 1.45 GiB
Duration : 2h 38mn
Overall bit rate : 1 313 Kbps
Encoded date : UTC 2014-03-07 15:13:43
Writing application : mkvmerge v6.1.0 ('Old Devil') built on Mar 4 2013 09:10:42
Writing library : libebml v1.3.0 + libmatroska v1.4.0
Video #1
ID : 1
Format : AVC
Format/Info : Advanced Video Codec
Format profile : High@L4.1
Format settings, CABAC : Yes
Format settings, ReFrames : 11 frames
Codec ID : V_MPEG4/ISO/AVC
Duration : 2h 38mn
Bit rate : 1 183 Kbps
Width : 928 pixels
Height : 388 pixels
Display aspect ratio : 2.40:1
Frame rate : 23.976 fps
Color space : YUV
Chroma subsampling : 4:2:0
Bit depth : 8 bits
Scan type : Progressive
Bits/(Pixel*Frame) : 0.137
Stream size : 1.28 GiB (88%)
Writing library : x264 core 130 r2273 b3065e6
Encoding settings : cabac=1 / ref=11 / deblock=1:-2:-1 / analyse=0x3:0x113 / me=umh / subme=10 / psy=1 / psy_rd=1.00:0.15 / mixed_ref=1 / me_range=48 / chroma_me=1 / trellis=2 / 8x8dct=1 / cqm=0 / deadzone=21,11 / fast_pskip=0 / chroma_qp_offset=-3 / threads=6 / lookahead_threads=1 / sliced_threads=0 / nr=0 / decimate=1 / interlaced=0 / bluray_compat=0 / constrained_intra=0 / bframes=9 / b_pyramid=2 / b_adapt=2 / b_bias=0 / direct=3 / weightb=1 / open_gop=0 / weightp=2 / keyint=240 / keyint_min=23 / scenecut=40 / intra_refresh=0 / rc_lookahead=60 / rc=2pass / mbtree=1 / bitrate=1183 / ratetol=1.0 / qcomp=0.60 / qpmin=0 / qpmax=69 / qpstep=4 / cplxblur=20.0 / qblur=0.5 / ip_ratio=1.40 / aq=1:1.00
Default : Yes
Forced : No
Audio #2
ID : 2
Format : MPEG Audio
Format version : Version 1
Format profile : Layer 3
Codec ID : A_MPEG/L3
Codec ID/Hint : MP3
Duration : 2h 38mn
Bit rate mode : Constant
Bit rate : 128 Kbps
Channel(s) : 2 channels
Sampling rate : 48.0 KHz
Compression mode : Lossy
Stream size : 145 MiB (10%)
Writing library : LAME3.99r
Encoding settings : -m s -V 4 -q 2 -lowpass 17 -b 128
Default : Yes
Forced : No
piratbit.pw



Скачать Нефть через торрент http://i58.fastpic.ru/big/2014/0311/9c/d4c3d3d40d301e27dcb5407b2f9a239c.jpg Скачать фильм Нефть через торрент бесплантно в хорошем качестве Описание:Экранизация романа «Нефть» классика американской литературы Эптона Синклера. Действие книги происходит в конце 1920-х в Калифорнии ... 10 10 5
Info! Золотая раздача, скачанное не засчитывается.
Торрент: Зарегистрирован [2014-03-11 13:38] · скачан: 640 раз
Статус: √ проверено
Размер: 1.45 GB
Как cкачать? Как скачать Нефть через торрент | UTorrent

28-11-2019 20:33  

Отключить всю рекламу на сайте


    Дорогой пользователь! Огромная просьба, поблагодарите релизера, оцените раздачу и оставьте свои комментарий, если Вы скачали Нефть через торрент бесплатно! Внесите свою лепту в развитие PiratBit!
    Комментировать посты могут только пользователи прошедшие не сложную регистрацию
    Показать сообщения:    

    Нефть через торрент
    Скачать бесплатно Нефть
    Нефть скачать торрент
    Нефть смотреть онлайн
    Cкачать фильм Нефть бесплатно
    Нефть скачать торрент в хорошем качестве
    Нефть смотреть онлайн бесплатно в хорошем качестве


    Вы не можете начинать темы
    Вы не можете отвечать на сообщения
    Вы не можете редактировать свои сообщения
    Вы не можете удалять свои сообщения
    Вы не можете голосовать в опросах
    Вы не можете прикреплять файлы к сообщениям
    Вы можете скачивать файлы