Ссылка на приватное зеркало нашего сайта всего за 1$. Внимание количество ограничено!!!

2 сезон

iTunes

1 сезон

1

iTunes

iTunes

iTunes

1 сезон

RePack

30

ИГРА 18+

pack

ВАЖНО

!!Акция!!

Alien_RageХит недели

RePack

MK11
pack

Забери бонус

RePack

jed

!!Акция!!

Alien_Rage

RePack

fifa19

RePack

Assassins Creed: Odyssey

RePack

NEED FOR SPEED™ PAYBACK

4 сезон

9 сезон

Бесстыжие 9 сезон

Все сериалы

все сериалы на PB.wtf

RePack

FAR CRY 5
  

Не покидай меня, любовь (Роман Фокин) [2014 г., мелодрама, SATRip] piratbit.pw

Не покидай меня, любовь через торрент piratbit.pw

Размер: 1.41 GB | Добавлен: 6 лет 7 мес. назад | Торрент скачан:517 раз
Скачать  

10-03-2014 13:38 Не покидай меня, любовь Скачать торрент  

Не покидай меня любовьГод выпуска: 2014
Страна: Россия
Жанр: мелодрама,
Продолжительность: 1:34:02

Режиссер: Роман Фокин

В ролях: Яна Шивкова, Владимир Шевельков, Максим Коновалов, Анна Банщикова,

Описание: Любе 35 лет. 15 из них она прожила одиноко, одна поднимала сына Степана. В деревне Любу уважают и любят, часто приходят к ней за помощью и советом. Работает она секретарем сельсовета. Привычный жизненный уклад Любы нарушает возвращение ее давнего ухажера Виктора. Он прибывает в село в качестве нового участкового и тут же начинает ухлестывать за Любой. С этого момента личная жизнь матери-одиночки становится достоянием всей деревни. Масла в огонь добавляет неожиданное возвращение из-за границы Николая - человека, от которого Люба родила сына и которого любит всю жизнь. События стремительно начинают набирать оборот после того, как Николай случайно знакомится со Степаном. Взрослый мужчина и мальчик начинают общаться, не зная, что они - отец и сын...
Дополнительно:

Качество: SATRip
Формат: AVI
Видео кодек: DivX
Аудио кодек: MP3
Видео: MPEG4, DivX 5, 720x400 (16:9), 25.000 fps, 1 952 Kbps (0.271 bit/pixel)
Аудио: MP3 , 48.0 KHz, 2 ch, 192 Kbps, CBR
скриншот   скриншот   скриншот   скриншот   скриншот   скриншот   скриншот   скриншот  

Код:

Формат                           : AVI
Формат/Информация                : Audio Video Interleave
Размер файла                     : 1,41 Гбайт
Продолжительность                : 1 ч. 34 м.
Общий поток                      : 2154 Кбит/сек
Библиотека кодирования           : VirtualDub build 35491/release

Видео
Идентификатор                    : 0
Формат                           : MPEG-4 Visual
Параметр BVOP формата            : 1
Параметр QPel формата            : Нет
Параметр GMC формата             : Без точки перехода
Параметр матрицы формата         : Default (H.263)
Режим смешивания                 : Сжатый битовый поток
Идентификатор кодека             : DX50
Идентификатор кодека/Подсказка   : DivX 5
Продолжительность                : 1 ч. 34 м.
Битрейт                          : 1952 Кбит/сек
Ширина                           : 720 пикс.
Высота                           : 400 пикс.
Соотношение сторон               : 16:9
Частота кадров                   : 25,000 кадр/сек
Цветовое пространство            : YUV
Подвыборка цветности             : 4:2:0
Битовая глубина                  : 8 бит
Тип развёртки                    : Прогрессивная
Метод сжатия                     : С потерями
Бит/(Пиксели*Кадры)              : 0.271
Размер потока                    : 1,28 Гбайт (91%)
Библиотека кодирования           : DivX 6.8.5 (UTC 2009-08-20)

Аудио
Идентификатор                    : 1
Формат                           : MPEG Audio
Версия формата                   : Version 1
Профиль формата                  : Layer 3
Режим                            : Joint stereo
Расширение режима                : MS Stereo
Идентификатор кодека             : 55
Идентификатор кодека/Подсказка   : MP3
Продолжительность                : 1 ч. 34 м.
Вид битрейта                     : Постоянный
Битрейт                          : 192 Кбит/сек
Канал(ы)                         : 2 канала(ов)
Частота                          : 48,0 КГц
Метод сжатия                     : С потерями
Размер потока                    : 129 Мбайт (9%)
Выравнивание                     : Разделение по промежуткам
Продолжительность промежутка     : 40  мс. (1,00 видеокадр)
Время предзагрузки промежутка    : 500 ms


piratbit.pw



Скачать Не покидай меня, любовь через торрент http://pic.kartinco.top/images/6/rtz4y.jpg Скачать фильм Не покидай меня, любовь через торрент бесплантно в хорошем качестве Описание: Любе 35 лет. 15 из них она прожила одиноко, одна поднимала сына Степана. В деревне Любу уважают и любят, часто приходят к ней за ... 10 10 10
Info! Золотая раздача, скачанное не засчитывается.
Торрент: Зарегистрирован [2014-03-10 13:38] · скачан: 517 раз
Статус: √ проверено
Размер: 1.41 GB
Как cкачать? Как скачать Не покидай меня, любовь через торрент | qTorrent

28-11-2019 20:33  

Отключить всю рекламу на сайте

    Дорогой пользователь! Огромная просьба, поблагодарите релизера, оцените раздачу и оставьте свои комментарий, если Вы скачали Не покидай меня, любовь через торрент бесплатно! Внесите свою лепту в развитие PiratBit!
    Комментировать посты могут только пользователи прошедшие не сложную регистрацию
    Показать сообщения:    

    Не покидай меня, любовь через торрент
    Скачать бесплатно Не покидай меня, любовь
    Не покидай меня, любовь скачать торрент
    Не покидай меня, любовь смотреть онлайн
    Cкачать фильм Не покидай меня, любовь бесплатно
    Не покидай меня, любовь скачать торрент в хорошем качестве
    Не покидай меня, любовь смотреть онлайн бесплатно в хорошем качестве


    Вы не можете начинать темы
    Вы не можете отвечать на сообщения
    Вы не можете редактировать свои сообщения
    Вы не можете удалять свои сообщения
    Вы не можете голосовать в опросах
    Вы не можете прикреплять файлы к сообщениям
    Вы можете скачивать файлы