1 сезон

1 сезон

iTunes

1

iTunes

Кинопоиск HD

iTunes

13

1 сезон

RePack

30

Deluxe

ВАЖНО

ИГРА 18+

pack

RePack

MK11
pack

Легкие деньги

RePack

jed

RePack

fifa19

RePack

RDR2

RePack

NEED FOR SPEED™ PAYBACK

4 сезон

9 сезон

Бесстыжие 9 сезон

Все сериалы

все сериалы на PB.wtf

RePack

FAR CRY 5
  
Magnet ссылка

Охотники за сокровищами / Lost City Raiders (Жан Де Сегонзак / Jean de Segonzac) [2008, Германия, фантастика, приключения, HDRip] MVO piratbit.pw

Охотники за сокровищами через торрент piratbit.pw

Размер: 748 MB | Добавлен: 7 лет 2 мес. назад | Торрент скачан:122 раза
Скачать  

03-03-2014 13:20 Охотники за сокровищами Скачать торрент  

Охотники за сокровищами / Lost City Raiders
Год выпуска: 2008
Страна: Германия, Tandem Communications
Жанр: Фантастика, приключения
Продолжительность: 01:41:41
Перевод: Профессиональный (многоголосый, закадровый)
Русские субтитры: нет

Режиссер: Жан Де Сегонзак / Jean de Segonzac

В ролях: Джеймс Бролин, Йен Сомерхалдер, Беттина Зиммерманн, Джэми Кинг, Элоди Фрэнк, Михаэль Мендль, Джереми Кратчли

Описание: После глобальных катастроф на Земле началось Потепление. За три года растаявшие ледяные покровы подняли уровень воды в Мировом океане на 15 метров, затопив континенты и практически уничтожив цивилизацию. В центре повествования двое братьев — Томас и Джек, которые вместе с отцом промышляют поиском сокровищ в полузатопленых городах. Волей судьбы и по поручению Ватикана им приходится принять участие в поисках легендарного скипетра Собека, Египетского бога воды, который в незапамятные времена дал Моисею Влacть над водной стихией. Ватикан надеется с его помощью остановить второй всемирный потоп. Однако им противостоит русский миллионер Филимонов, вложивший все свои средства в плавучие города…


Качество: HDRip [Исходник BDRip 720p]
Формат: AVI
Видео кодек: XviD
Аудио кодек: MP3
Видео: 624x352 (1.77:1), 23.976 fps, XviD build 73 ~890 kbps avg, 0.17 bit/pixel
Аудио: 48 kHz, MPEG Layer 3, 2 ch, ~128.00 kbps avg
Раздача от:
D:Мои рипыНовая папкаOhotniki.za.sokrovischami.2008.HDRip.MVO.dexter_lex.avi
General
Complete name : D:Мои рипыНовая папкаOhotniki.za.sokrovischami.2008.HDRip.MVO.dexter_lex.avi
Format : AVI
Format/Info : Audio Video Interleave
File size : 748 MiB
Duration : 1h 41mn
Overall bit rate : 1 028 Kbps
Writing application : VirtualDubMod 1.5.10.3 | www.virtualdub-fr.org || (build 2550/release)
Writing library : VirtualDubMod build 2550/release
Video #0
ID : 0
Format : MPEG-4 Visual
Format profile : Advanced Simple@L5
Format settings, BVOP : 1
Format settings, QPel : No
Format settings, GMC : No warppoints
Format settings, Matrix : Custom
Codec ID : XVID
Codec ID/Hint : XviD
Duration : 1h 41mn
Bit rate : 891 Kbps
Width : 624 pixels
Height : 352 pixels
Display aspect ratio : 16:9
Frame rate : 23.976 fps
Color space : YUV
Chroma subsampling : 4:2:0
Bit depth : 8 bits
Scan type : Progressive
Compression mode : Lossy
Bits/(Pixel*Frame) : 0.169
Stream size : 648 MiB (87%)
Writing library : XviD 73
Audio #1
ID : 1
Format : MPEG Audio
Format version : Version 1
Format profile : Layer 3
Codec ID : 55
Codec ID/Hint : MP3
Duration : 1h 41mn
Bit rate mode : Constant
Bit rate : 128 Kbps
Channel(s) : 2 channels
Sampling rate : 48.0 KHz
Compression mode : Lossy
Stream size : 93.1 MiB (12%)
Alignment : Aligned on interleaves
Interleave, duration : 42 ms (1.00 video frame)
Interleave, preload duration : 504 ms
Writing library : LAME3.99r
Encoding settings : -m s -V 4 -q 2 -lowpass 17 -b 128
piratbit.pw



Скачать Охотники за сокровищами через торрент http://i33.fastpic.ru/big/2014/0303/2f/9733946360bf19200c995a14a870062f.jpg Скачать фильм Охотники за сокровищами через торрент бесплантно в хорошем качестве Описание: После глобальных катастроф на Земле началось Потепление. За три года растаявшие ледяные покровы подняли уровень воды в Мировом ... 10 10 7
Торрент: Зарегистрирован [2014-03-03 13:20] · скачан: 122 раз
Статус: √ проверено
Размер: 748 MB
Как cкачать? Как скачать Охотники за сокровищами через торрент | UTorrent

% Раздел Тема Автор DL S | L
Фильмы 2006-2008 [ 1.46 GB ] Охотники за сокровищами / Lost City Raiders [2008 Германия HDRip] MVO dexter lex Скачать
1 | 0
Фильмы 2006-2008 [ 1.46 GB ] Охотники за сокровищами / Lost City Raiders [2008 Германия HDRip-AVC] MVO dexter lex Скачать
1 | 0

28-11-2019 20:33  

Отключить всю рекламу на сайте

    Дорогой пользователь! Огромная просьба, поблагодарите релизера, оцените раздачу и оставьте свои комментарий, если Вы скачали Охотники за сокровищами через торрент бесплатно! Внесите свою лепту в развитие PiratBit!
    Комментировать посты могут только пользователи прошедшие не сложную регистрацию
    Показать сообщения:    

    Охотники за сокровищами через торрент
    Скачать бесплатно Охотники за сокровищами
    Охотники за сокровищами скачать торрент
    Охотники за сокровищами смотреть онлайн
    Cкачать фильм Охотники за сокровищами бесплатно
    Охотники за сокровищами скачать торрент в хорошем качестве
    Охотники за сокровищами смотреть онлайн бесплатно в хорошем качестве


    Вы не можете начинать темы
    Вы не можете отвечать на сообщения
    Вы не можете редактировать свои сообщения
    Вы не можете удалять свои сообщения
    Вы не можете голосовать в опросах
    Вы не можете прикреплять файлы к сообщениям
    Вы можете скачивать файлы