1 сезон

3 сезон

iTunes

1

iTunes

DUB Netflix

iTunes

13

1 сезон

RePack

30

Deluxe

pack

Легкие деньги

ВАЖНО

ИГРА 18+

pack

RePack

MK11

RePack

jed

RePack

fifa19

RePack

RDR2

RePack

NEED FOR SPEED™ PAYBACK

4 сезон

9 сезон

Бесстыжие 9 сезон

Все сериалы

все сериалы на PB.wtf

RePack

FAR CRY 5

Anonymous, добрый вечер, мы не успеваем до 1 числа собрать деньги на оплату серверов, помогите нам пожалуйста в это трудное время. В качестве благодарности мы отключим Вам всю рекламу на сайте (укажите свой ник в строку Ваше имя)!

×
  
Magnet ссылка

Злая кровь / Wicked Blood (Марк Янг / Mark Young) [ 2014 , США , боевик, триллер, драма , HDRip ]VO(datynet) piratbit.pw

Злая кровь через торрент piratbit.pw

Размер: 1.21 GB | Добавлен: 7 лет 3 мес. назад | Торрент скачан:284 раза
Скачать  

02-03-2014 01:50 Злая кровь Скачать торрент  

Злая кровь / Wicked Blood

Год выпуска: 2014
Страна: США
Жанр: боевик, триллер, драма
Продолжительность: 01:31:48
Перевод: Любительский (одноголосый)(datynet)
Субтитры: Нет

Режиссер: Марк Янг / Mark Young
Сценарий: Марк Янг / Mark Young
Продюсер: Ник Стаглиано / Nick Stagliano, Эрик Бассетт / Eric Bassett, Крэйг Альбрехт / Craig Albrecht, Джек Сойка / Jack Sojka, Брэндон Бэйкер / Brandon Baker
Оператор: Грег Истербрук / Gregg Easterbrook
Композитор: Элиа Кмирал / Elia Cmiral

Эбигейл Бреслин (Hannah Lee), Алекса ПенаВега (Amber), Шон Бин (Uncle Frank Stinson), Джеймс Пьюрфой (Wild Bill), Джейк Бьюзи (Bobby Stinson), Лью Темпл (Donny), Дж.Д. Эвермор (Doctor), Ричи Монтгомери (Hank), Томас Мерфи (Bearded Man), Доди Браун (Nurse), Рики Уэйн (FBI Agent), Кэйси Хендершот (Lukas)

Мировая премьера: 5 февраля 2014

Описание:Ханна Ли Бейкер - девочка-подросток, попавшая в ловушку насилия и оружия, мет-лабораторий и банд байкеров. Она живет со своей старшей сестрой, Амбер, и ее дядей-наркоманом. Все они боятся дядю Фрэнка Стинсона, который руководит незаконным семейным бизнесом...

Качество: HDRip
Формат: AVI
Видео кодек: XviD
Аудио кодек: MP3
Видео: 1687 Кбит/сек, 720*384 (1,85:1), в 23,976 кадра/сек, MPEG-4 Visual (XviD)
Аудио: 192 Кбит/сек, 44,1 КГц, 2 канала, MPEG Audio (MP3 )

Общее
Кол-во : 284
Кол-во потоков такого типа : 1
Тип потока : General
Тип потока : Общее
Идентификатор типа потока : 0
Inform : AVI: 1,21 Гбайт, 1 ч. 31 м.
Кол-во видеопотоков : 1
Кол-во аудиопотоков : 1
Video_Format_List : MPEG-4 Visual
Video_Format_WithHint_List : MPEG-4 Visual (XviD)
Видеокодеки : XviD
Audio_Format_List : MPEG Audio
Audio_Format_WithHint_List : MPEG Audio (MP3 )
Аудиокодеки : MPEG-1 Audio layer 3
Полное имя : H:ТОРРЕНТЫЗлая кровь.avi
Имя папки : H:ТОРРЕНТЫ
Имя файла : Злая кровь
Расширение : avi
Формат : AVI
Формат : AVI
Формат/Информация : Audio Video Interleave
Формат/Используется в : avi
Коммерческое название : AVI
Интернет-тип носителя : video/vnd.avi
Чередующаяся : Yes
Кодек : AVI
Кодек : AVI
Кодек/Информация : Audio Video Interleave
Кодек/Используется в : avi
Размер файла : 1300157806
Размер файла : 1,21 Гбайт
Размер файла : 1 Гбайт
Размер файла : 1,2 Гбайт
Размер файла : 1,21 Гбайт
Размер файла : 1,211 Гбайт
Продолжительность : 5508169
Продолжительность : 1 ч. 31 м.
Продолжительность : 1 ч. 31 м. 48 с. 169 мс.
Продолжительность : 1 ч. 31 м.
Продолжительность : 01:31:48.169
Общий поток : 1888334
Общий поток : 1888 Кбит/сек
Размер потока : 6546941
Размер потока : 6,24 Мбайт (1%)
Размер потока : 6 Мбайт
Размер потока : 6,2 Мбайт
Размер потока : 6,24 Мбайт
Размер потока : 6,244 Мбайт
Размер потока : 6,24 Мбайт (1%)
Пропорции потока : 0.00504
Дата файла : UTC 2014-03-02 00:56:25.917
Дата файла (местная) : 2014-03-02 07:56:25.917
Дата изменения файла : UTC 2014-03-02 01:26:19.912
Дата изменения файла (местная) : 2014-03-02 08:26:19.912
Библиотека кодирования : VirtualDub build 34753/release
Библиотека кодирования : VirtualDub build 34753/release

Видео
Кол-во : 271
Кол-во потоков такого типа : 1
Тип потока : Video
Тип потока : Видео
Идентификатор типа потока : 0
StreamOrder : 0
Inform : 1687 Кбит/сек, 720*384 (1,85:1), в 23,976 кадра/сек, MPEG-4 Visual (XviD) (Advanced Simple@L5) (BVOP2)
Идентификатор : 0
Идентификатор : 0
Формат : MPEG-4 Visual
Коммерческое название : MPEG-4 Visual
Профиль формата : Advanced Simple@L5
Настройки формата : BVOP2
Параметр BVOP формата : 2
Параметр BVOP формата : 2
Параметр QPel формата : No
Параметр QPel формата : Нет
Параметр GMC формата : 0
Параметр GMC формата : Без точки перехода
Параметр матрицы формата : Default (H.263)
Параметр матрицы формата : Default (H.263)
Интернет-тип носителя : video/MP4V-ES
Идентификатор кодека : XVID
Идентификатор кодека/Подсказка : XviD
Идентификатор кодека/Ссылка : http://mediaarea.net/XVID
Кодек : XVID
Кодек : XviD
Кодек/Семейство : MPEG-4V
Кодек/Информация : XviD project
Кодек/Ссылка : http://www.xvid.org/Downloads.15.0.html
Кодек/CC : XVID
Профиль кодека : Advanced Simple@L5
Настройки кодека : BVOP
Параметр пакетного потока данных кодека : No
Параметр BVOP кодека : Yes
Параметр QPel кодека : No
Параметр GMC кодека : 0
Параметр GMC кодека : Без точки перехода
Параметр матрицы кодека : Default (H.263)
Продолжительность : 5508169
Продолжительность : 1 ч. 31 м.
Продолжительность : 1 ч. 31 м. 48 с. 169 мс.
Продолжительность : 1 ч. 31 м.
Продолжительность : 01:31:48.169
Битрейт : 1686824
Битрейт : 1687 Кбит/сек
Ширина : 720
Ширина : 720 пикселей
Высота : 384
Высота : 384 пикселя
Пропорции пикселя : 1.000
Соотношение сторон : 1.875
Соотношение сторон : 1,85:1
Частота кадров : 23.976
Частота кадров : 23,976 кадра/сек
Счётчик кадров : 132064
Разрешение : 8
Разрешение : 8 бит
Колориметрия : 4:2:0
Цветовое пространство : YUV
Субдискретизация насыщенности : 4:2:0
Битовая глубина : 8
Битовая глубина : 8 бит
Тип развёртки : Progressive
Тип развёртки : Прогрессивная
Переплетение : PPF
Переплетение : Прогрессивная
Метод сжатия : Lossy
Метод сжатия : С потерями
Бит/(Пиксели*Кадры) : 0.254
Задержка : 0
Задержка : 00:00:00.000
Размер потока : 1161414907
Размер потока : 1,08 Гбайт (89%)
Размер потока : 1 Гбайт
Размер потока : 1,1 Гбайт
Размер потока : 1,08 Гбайт
Размер потока : 1,082 Гбайт
Размер потока : 1,08 Гбайт (89%)
Пропорции потока : 0.89329
Библиотека кодирования : XviD0050
Библиотека кодирования : XviD 1.2.1 (UTC 2008-12-04)
Библиотека кодирования/Имя : XviD
Библиотека кодирования/Version : 1.2.1
Библиотека кодирования/Дата : UTC 2008-12-04

Аудио
Кол-во : 222
Кол-во потоков такого типа : 1
Тип потока : Audio
Тип потока : Аудио
Идентификатор типа потока : 0
StreamOrder : 1
Inform : 192 Кбит/сек, 44,1 КГц, 2 канала, MPEG Audio (MP3 ) (Version 1) (Layer 3)
Идентификатор : 1
Идентификатор : 1
Формат : MPEG Audio
Коммерческое название : MPEG Audio
Версия формата : Version 1
Профиль формата : Layer 3
Интернет-тип носителя : audio/mpeg
Идентификатор кодека : 55
Идентификатор кодека/Подсказка : MP3
Идентификатор кодека/Ссылка : http://www.iis.fraunhofer.de/amm/index.html
Кодек : MPA1L3
Кодек : MPEG-1 Audio layer 3
Кодек/Семейство : MPEG-1
Кодек/Информация : MPEG-1 or 2 layer 3
Кодек/Ссылка : http://www.iis.fraunhofer.de/amm/index.html
Кодек/CC : 55
Продолжительность : 5508165
Продолжительность : 1 ч. 31 м.
Продолжительность : 1 ч. 31 м. 48 с. 165 мс.
Продолжительность : 1 ч. 31 м.
Продолжительность : 01:31:48.165
Вид битрейта : CBR
Вид битрейта : Постоянный
Битрейт : 192000
Битрейт : 192 Кбит/сек
Каналы : 2
Каналы : 2 канала
Частота : 44100
Частота : 44,1 КГц
Количество образцов : 242910077
Метод сжатия : Lossy
Метод сжатия : С потерями
Задержка : 0
Задержка : 00:00:00.000
Задержка в оригинале : Stream
Задержка в оригинале : 'Сырой' поток
Задержка видео : 0
Задержка видео : 0
Размер потока : 132195958
Размер потока : 126 Мбайт (10%)
Размер потока : 126 Мбайт
Размер потока : 126 Мбайт
Размер потока : 126 Мбайт
Размер потока : 126,1 Мбайт
Размер потока : 126 Мбайт (10%)
Пропорции потока : 0.10168
Выравнивание : Split
Выравнивание : Разделение по промежуткам
Продолжительность промежутка : 1.00
Продолжительность промежутка : 42
Продолжительность промежутка : 42 мс. (1,00 видеокадр)
Время предзагрузки промежутка : 500
Время предзагрузки промежутка : 500 мс.


скриншот  скриншот  скриншот  скриншот  скриншот  скриншот  скриншот  



piratbit.pw



Скачать Злая кровь через торрент https://pic1.kartinco.top/images/61/n6w4l.jpg Скачать фильм Злая кровь через торрент бесплантно в хорошем качестве Описание:Ханна Ли Бейкер - девочка-подросток, попавшая в ловушку насилия и оружия, мет-лабораторий и банд байкеров. Она живет со своей ... 9.1 10 23
Торрент: Зарегистрирован [2014-03-02 01:50] · скачан: 284 раз
Статус: T временная
Размер: 1.21 GB
Как cкачать? Как скачать Злая кровь через торрент | UTorrent

% Раздел Тема Автор DL S | L
T Фильмы 2014 (Звук TS, Cam, VO, DVO) [ 2.1 GB ] Злая кровь / Wicked Blood [2014 HDRip Любительский одноголосый] coc900 Скачать
1 | 0
Фильмы [HD 720p, 1080p] (Звук Cam, VO, DVO) [ 6.84 GB ] Злая кровь / Wicked Blood [ 2014 BDRip 1080p ]VO Ворон Скачать
1 | 0
Фильмы [HD 720p, 1080p] (Звук Cam, VO, DVO) [ 4.66 GB ] Злая кровь / Wicked blood BDRip 720p от CINEMANIA / L1 sergey82 Скачать
1 | 0


Последний раз редактировалось: GEKADOL (2014-04-14 04:16), всего редактировалось 1 раз

28-11-2019 20:33  

Отключить всю рекламу на сайте

02-03-2014 07:55 Злая кровь Скачать торрент  

Как фильм?piratbit.pw



02-03-2014 11:44 Злая кровь Скачать торрент  

ugin777 писал(а):

Как фильм?

походу какаpiratbit.pw



02-03-2014 11:44 Злая кровь Скачать торрент  

ugin777 писал(а):

Как фильм?

походу какаpiratbit.pw



    Дорогой пользователь! Огромная просьба, поблагодарите релизера, оцените раздачу и оставьте свои комментарий, если Вы скачали Злая кровь через торрент бесплатно! Внесите свою лепту в развитие PiratBit!
    Комментировать посты могут только пользователи прошедшие не сложную регистрацию
    Показать сообщения:    

    Злая кровь через торрент
    Скачать бесплатно Злая кровь
    Злая кровь скачать торрент
    Злая кровь смотреть онлайн
    Cкачать фильм Злая кровь бесплатно
    Злая кровь скачать торрент в хорошем качестве
    Злая кровь смотреть онлайн бесплатно в хорошем качестве


    Вы не можете начинать темы
    Вы не можете отвечать на сообщения
    Вы не можете редактировать свои сообщения
    Вы не можете удалять свои сообщения
    Вы не можете голосовать в опросах
    Вы не можете прикреплять файлы к сообщениям
    Вы можете скачивать файлы