1 сезон

3 сезон

iTunes

1

iTunes

DUB Netflix

iTunes

13

1 сезон

RePack

30

Deluxe

pack

Легкие деньги

ВАЖНО

ИГРА 18+

pack

RePack

MK11

RePack

jed

RePack

fifa19

RePack

RDR2

RePack

NEED FOR SPEED™ PAYBACK

4 сезон

9 сезон

Бесстыжие 9 сезон

Все сериалы

все сериалы на PB.wtf

RePack

FAR CRY 5

Anonymous, доброй ночи, мы не успеваем до 1 числа собрать деньги на оплату серверов, помогите нам пожалуйста в это трудное время. В качестве благодарности мы отключим Вам всю рекламу на сайте (укажите свой ник в строку Ваше имя)!

×
  
Magnet ссылка

Пугало / Scarecrow (Шелдон Уилсон) [2013 г., ужасы, фантастика, HDRip, Любительский одноголосый] piratbit.pw

Пугало через торрент piratbit.pw

Размер: 1.46 GB | Добавлен: 7 лет 3 мес. назад | Торрент скачан:562 раза
Скачать  

28-02-2014 17:29 Пугало Скачать торрент  

Пугало / Scarecrow
Год выпуска: 2013
Страна: США, Канада / Brightlight Pictures, Sonar Entertainment (II), Lighthouse Pictures
Жанр: ужасы, фантастика
Продолжительность: 01:25:57
Перевод: Любительский одноголосый (Асинхрон)

Режиссер: Шелдон Уилсон



В ролях: Лейси Чаберт, Робин Данн, Ричард Хэрмон, Бриттни Уилсон, Николь Муньос, Джулия Максвелл, Айэйн Белчер, Джерри Вассерман, Карло Маркс, Лэни МакОли.

Описание: Главными героями фильма являются шестеро нерадивых учеников, совершивших различного рода проступки в школе и получивших в качестве наказания задание перевезти пугало с одного фермерского хозяйства на центральную площадь города, где будет проводиться ежегодный фестиваль. Казавшаяся необычайно легкой задача в конечном итоге оборачивается трагедией. Древняя городская легенда о злобном пугале, которой страшили первоклашек, превращается в правду, и теперь главная задача – выжить…

Качество: HDRip
Формат: AVI
Видео кодек: XviD
Аудио кодек: AC3
Видео: 720x400 (1.80:1), 24.000 fps, XviD build 50 ~2233 kbps avg, 0.32 bit/pixel
Аудио: 48 kHz, AC3 Dolby Digital, 2/0 (L,R) ch, ~192 kbps

Общее
Полное имя : H:киноScarecrow.2013.BDRip.avi
Формат : AVI
Формат/Информация : Audio Video Interleave
Размер файла : 1,46 Гбайт
Продолжительность : 1 ч. 25 м.
Общий поток : 2435 Кбит/сек
Программа кодирования : VirtualDubMod 1.5.10.3 | www.virtualdub-fr.org || (build 2550/release)
Библиотека кодирования : VirtualDubMod build 2550/release

Видео
Идентификатор : 0
Формат : MPEG-4 Visual
Профиль формата : Advanced Simple@L5
Параметр BVOP формата : 2
Параметр QPel формата : Нет
Параметр GMC формата : Без точки перехода
Параметр матрицы формата : Default (H.263)
Идентификатор кодека : XVID
Идентификатор кодека/Подсказка : XviD
Продолжительность : 1 ч. 25 м.
Битрейт : 2234 Кбит/сек
Ширина : 720 пикселей
Высота : 400 пикселей
Соотношение сторон : 16:9
Частота кадров : 24,000 кадра/сек
Цветовое пространство : YUV
Субдискретизация насыщенности : 4:2:0
Битовая глубина : 8 бит
Тип развёртки : Прогрессивная
Метод сжатия : С потерями
Бит/(Пиксели*Кадры) : 0.323
Размер потока : 1,34 Гбайт (92%)
Библиотека кодирования : XviD 1.2.1 (UTC 2008-12-04)

Аудио
Идентификатор : 1
Формат : AC-3
Формат/Информация : Audio Coding 3
Расширение режима : CM (complete main)
Параметр Endianness формата : Big
Идентификатор кодека : 2000
Продолжительность : 1 ч. 25 м.
Вид битрейта : Постоянный
Битрейт : 192 Кбит/сек
Каналы : 2 канала
Расположение каналов : Front: L R
Частота : 48,0 КГц
Битовая глубина : 16 бит
Метод сжатия : С потерями
Размер потока : 118 Мбайт (8%)
Выравнивание : Разделение по промежуткам
Продолжительность промежутка : 42 мс. (1,00 видеокадр)
Время предзагрузки промежутка : 500 мс.

piratbit.pw



Скачать Пугало через торрент https://pic1.kartinco.top/images/61/gj33x.jpg Скачать фильм Пугало через торрент бесплантно в хорошем качестве Описание: Главными героями фильма являются шестеро нерадивых учеников, совершивших различного рода проступки в школе и получивших в ... 9.6 10 16
Торрент: Зарегистрирован [2014-02-28 17:29] · скачан: 562 раз
Статус: T временная
Размер: 1.46 GB
Как cкачать? Как скачать Пугало через торрент | UTorrent

% Раздел Тема Автор DL S | L
T Фильмы (мультфильмы) cо спонсором показа (Новинки AVI/MKV) [ 4.25 GB ] Месть Пугала / Scarecrow's Revenge / Scarecrow Vs. Vikings [2019 WEB-DL 720p] MVO ["Синема УС"] bober100 Скачать
1 | 0
T Фильмы (мультфильмы) cо спонсором показа (Новинки AVI/MKV) [ 1.37 GB ] Месть Пугала / Scarecrow's Revenge / Scarecrow Vs. Vikings [2019 WEB-DLRip] MVO ["Синема УС"] bober100 Скачать
1 | 0
T Фильмы (мультфильмы) cо спонсором показа (Новинки AVI/MKV) [ 2.82 GB ] Проклятие пугала / Curse of the Scarecrow [2018 WEB-DL 720p] MVO ["Синема УС"] bober100 Скачать
1 | 0
T Фильмы (мультфильмы) cо спонсором показа (Новинки AVI/MKV) [ 1.37 GB ] Проклятие пугала / Curse of the Scarecrow [2018 WEB-DLRip] MVO ["Синема УС"] bober100 Скачать
1 | 0
T Фильмы (мультфильмы) cо спонсором показа (Новинки AVI/MKV) [ 4.11 GB ] Пугало / Scarecrows [2018 BDRip 720p] MVO ["Синема УС"] bober100 Скачать
1 | 0
T Фильмы (мультфильмы) cо спонсором показа (Новинки AVI/MKV) [ 1.37 GB ] Пугало / Scarecrows [2018 HDRip] MVO ["Синема УС"] bober100 Скачать
1 | 0
Фильмы до 2000 г. [ 1.45 GB ] Пугало / Scarecrow [1973 HDRip] MVO koenig Скачать
1 | 0


Последний раз редактировалось: coc900 (2014-03-01 08:20), всего редактировалось 1 раз

28-11-2019 20:33  

Отключить всю рекламу на сайте

18-03-2014 17:52 Пугало Скачать торрент  

Жаль зря потраченного времени, еле досмотрел, в конце вообще мотал!!!! Даббер озвучил плохо очень плохо на 3 не больше, а сам фильм 4 с натяжкой потянет!((( я розочарован!!! piratbit.pw



05-04-2014 08:44 Пугало Скачать торрент  

там по рейтингу ясно что для тв3 снятоpiratbit.pw



    Дорогой пользователь! Огромная просьба, поблагодарите релизера, оцените раздачу и оставьте свои комментарий, если Вы скачали Пугало через торрент бесплатно! Внесите свою лепту в развитие PiratBit!
    Комментировать посты могут только пользователи прошедшие не сложную регистрацию
    Показать сообщения:    

    Пугало через торрент
    Скачать бесплатно Пугало
    Пугало скачать торрент
    Пугало смотреть онлайн
    Cкачать фильм Пугало бесплатно
    Пугало скачать торрент в хорошем качестве
    Пугало смотреть онлайн бесплатно в хорошем качестве


    Вы не можете начинать темы
    Вы не можете отвечать на сообщения
    Вы не можете редактировать свои сообщения
    Вы не можете удалять свои сообщения
    Вы не можете голосовать в опросах
    Вы не можете прикреплять файлы к сообщениям
    Вы можете скачивать файлы