1 сезон

1 сезон

iTunes

1

КиноПоиск HD

Кинопоиск HD

iTunes

13

1 сезон

RePack

30

Новинка

ВАЖНО

ИГРА 18+

pack

RePack

MK11
pack

Легкие деньги

RePack

jed

RePack

fifa19

RePack

RDR2

RePack

NEED FOR SPEED™ PAYBACK

4 сезон

9 сезон

Бесстыжие 9 сезон

Все сериалы

все сериалы на PB.wtf

RePack

FAR CRY 5
  
Magnet ссылка

Черные метки / The Art of the Steal (Джонатан Собол) [2013 г., комедия, криминал, WEB-DLRip, Авторский (одноголосый В.Белов)] piratbit.pw

Черные метки через торрент piratbit.pw

Размер: 1.47 GB | Добавлен: 7 лет 1 мес. назад | Торрент скачан:585 раз
Скачать  

28-02-2014 17:07 Черные метки Скачать торрент  

Черные метки / The Art of the Steal
Год выпуска: 2013
Страна: Канада / Weinstein Company, The, Sony Pictures, Entertainment One
Жанр: комедия, криминал
Продолжительность: 01:30:15
Перевод: Авторский (одноголосый) (В.Белов)

Режиссер: Джонатан Собол



В ролях: Курт Рассел, Мэтт Диллон, Теренс Стэмп, Джей Барушель, Кэтрин Уинник, Крис Диамантополос, Кеннет Уэлш, Джейсон Джонс, Девон Бостик, Керин Двайер.

Описание: Фильм рассказывает о байкере-сорвиголове, специализирующемся на краже произведений искусства. Он уже было собрался завязать с преступным прошлым, но все-таки не находит в себе силы отказаться от осуществления еще одной очень заманчивой кражи вместе со своим неблагонадежным братцем. Все в итоге идет наперекосяк, поскольку оказывается, что у каждого из братьев свой план.

Качество: WEB-DLRip
Формат: AVI
Видео кодек: XviD
Аудио кодек: AC3
Видео: 720x304 (2.37:1), 23.976 fps, XviD build 50 ~1939 kbps avg, 0.37 bit/pixel
Аудио: 48 kHz, AC3 Dolby Digital, 3/2 (L,C,R,l,r) + LFE ch, ~384 kbps


Общее
Полное имя : H:киноThe.Art.Of.The.Steal.2013.WEB-DLRip.avi
Формат : AVI
Формат/Информация : Audio Video Interleave
Размер файла : 1,47 Гбайт
Продолжительность : 1 ч. 30 м.
Общий поток : 2333 Кбит/сек
Программа кодирования : VirtualDubMod 1.5.10.3 | www.virtualdub-fr.org || (build 2550/release)
Библиотека кодирования : VirtualDubMod build 2550/release

Видео
Идентификатор : 0
Формат : MPEG-4 Visual
Профиль формата : Advanced Simple@L5
Параметр BVOP формата : 2
Параметр QPel формата : Нет
Параметр GMC формата : Без точки перехода
Параметр матрицы формата : Default (H.263)
Идентификатор кодека : XVID
Идентификатор кодека/Подсказка : XviD
Продолжительность : 1 ч. 30 м.
Битрейт : 1940 Кбит/сек
Ширина : 720 пикселей
Высота : 304 пикселя
Соотношение сторон : 2,35:1
Частота кадров : 23,976 кадра/сек
Цветовое пространство : YUV
Субдискретизация насыщенности : 4:2:0
Битовая глубина : 8 бит
Тип развёртки : Прогрессивная
Метод сжатия : С потерями
Бит/(Пиксели*Кадры) : 0.370
Размер потока : 1,22 Гбайт (83%)
Библиотека кодирования : XviD 1.2.1 (UTC 2008-12-04)

Аудио
Идентификатор : 1
Формат : AC-3
Формат/Информация : Audio Coding 3
Расширение режима : CM (complete main)
Параметр Endianness формата : Big
Идентификатор кодека : 2000
Продолжительность : 1 ч. 30 м.
Вид битрейта : Постоянный
Битрейт : 384 Кбит/сек
Каналы : 6 каналов
Расположение каналов : Front: L C R, Side: L R, LFE
Частота : 48,0 КГц
Битовая глубина : 16 бит
Метод сжатия : С потерями
Размер потока : 248 Мбайт (16%)
Выравнивание : Разделение по промежуткам
Продолжительность промежутка : 42 мс. (1,00 видеокадр)
Время предзагрузки промежутка : 500 мс.

piratbit.pw



Скачать Черные метки через торрент https://pic.kartinco.top/images/6/qbcav.jpg Скачать фильм Черные метки через торрент бесплантно в хорошем качестве Описание: Фильм рассказывает о байкере-сорвиголове, специализирующемся на краже произведений искусства. Он уже было собрался завязать с ... 10 10 19
Торрент: Зарегистрирован [2014-02-28 17:07] · скачан: 585 раз
Статус: √ проверено
Размер: 1.47 GB
Как cкачать? Как скачать Черные метки через торрент | UTorrent

% Раздел Тема Автор DL S | L
Фильмы 2013 [DVDrip, WEB-DLRip, HDrip] [ 1.45 GB ] Черные метки / The Art of the Steal [2013 BDRip-AVC от sokol_ok] MVO [] sokol_ok Скачать
2 | 0
Фильмы 2013 [DVDrip, WEB-DLRip, HDrip] [ 2.18 GB ] Черные метки / The Art of the Steal [2013 BDRip-AVC от sokol_ok] MVO [] sokol_ok Скачать
2 | 0
Фильмы 2014 [DVDrip, WEB-DLRip, HDrip] [ 1.37 GB ] Черные метки / The Art of the Steal [2013 HDRip [лицензия] Ворон Скачать
1 | 0
Фильмы (DVD фильмы) [ 7.12 GB ] Черные метки / The Art of the Steal [2013 DVD9] R5 voovaz Скачать
1 | 0
Фильмы 2014 [DVDrip, WEB-DLRip, HDrip] [ 1.42 GB ] Черные метки / The Art of the Steal [2014 BDRip-AVC] MVO potroks Скачать
1 | 0
Видео для КПК и Смартфонов [ 466 MB ] Черные метки / The Art of the Steal [2013 HDRip многоголосый] кэп Скачать
1 | 0
Фильмы [HD 720p, 1080p] (Хороший звук DUB, MVO) [ 6.76 GB ] Черные метки / The Art of the Steal [2013 BDRip 1080p Многоголосый закадровый Ворон Скачать
1 | 1

28-11-2019 20:33  

Отключить всю рекламу на сайте


    Дорогой пользователь! Огромная просьба, поблагодарите релизера, оцените раздачу и оставьте свои комментарий, если Вы скачали Черные метки через торрент бесплатно! Внесите свою лепту в развитие PiratBit!
    Комментировать посты могут только пользователи прошедшие не сложную регистрацию
    Показать сообщения:    

    Черные метки через торрент
    Скачать бесплатно Черные метки
    Черные метки скачать торрент
    Черные метки смотреть онлайн
    Cкачать фильм Черные метки бесплатно
    Черные метки скачать торрент в хорошем качестве
    Черные метки смотреть онлайн бесплатно в хорошем качестве


    Вы не можете начинать темы
    Вы не можете отвечать на сообщения
    Вы не можете редактировать свои сообщения
    Вы не можете удалять свои сообщения
    Вы не можете голосовать в опросах
    Вы не можете прикреплять файлы к сообщениям
    Вы можете скачивать файлы