Ссылка на приватное зеркало нашего сайта всего за 1$. Внимание количество ограничено!!!

2 сезон

iTunes

1 сезон

1

iTunes

iTunes

iTunes

1 сезон

RePack

30

ИГРА 18+

pack

ВАЖНО

!!Акция!!

Alien_RageХит недели

RePack

MK11
pack

Забери бонус

RePack

jed

!!Акция!!

Alien_Rage

RePack

fifa19

RePack

Assassins Creed: Odyssey

RePack

NEED FOR SPEED™ PAYBACK

4 сезон

9 сезон

Бесстыжие 9 сезон

Все сериалы

все сериалы на PB.wtf

RePack

FAR CRY 5
  

Параллельные миры (Ермек Аманшаев) [2014, мелодрама, DVDRip][Лицензия] piratbit.pw

Параллельные миры через торрент piratbit.pw

Размер: 1.37 GB | Добавлен: 6 лет 7 мес. назад | Торрент скачан:1223 раза
Скачать  

23-02-2014 19:53 Параллельные миры Скачать торрент  


Параллельные миры

«Evil wears many faces»

  • Год выпуска:2013
  • Страна:Россия, Казахстан
  • Жанр: мелодрама
  • Продолжительность: 01:24:30
  • Перевод: Не требуется

  • Субтитры: Нет
  • Режиссер:Ермек Аманшаев
  • В ролях: Алёна Бабенко, Берик Айтжанов, Евгений Стычкин, Дастен Шакиров, Александра Морозова (парикмахерша)
    • Описание:
      Она одинока. Он случайно оказывается на ее балконе. Завязывается разговор, потом танец, потом странная перестановка в комнате - и все в её жизни меняется. Через балкон он нечаянно находит путь к её сердцу, через балкон он уходит, проникнув и изменив всё в глубинах её души.

    • Качество:DVDRip
    • Формат:AVI
    • Видео кодек: XviD
    • Аудио кодек:AC3
    • Видео: 720x400 (16:9), 2049 kbps, 25 fps
    • Аудио: AC3 / 5.1 / 48 kHz / 256 kbps / 16 bit


    Код:

    General
    Complete name                            : D:ТорентыParalleljnye.miry.2013.O.DVDRip.1400Mb_.avi
    Format                                   : AVI
    Format/Info                              : Audio Video Interleave
    File size                                : 1.37 GiB
    Duration                                 : 1h 24mn
    Overall bit rate                         : 2 316 Kbps
    Writing application                      : VirtualDubMod 1.5.10.3 | www.virtualdub-fr.org || (build 2550/release)
    Writing library                          : VirtualDubMod build 2550/release

    Video
    ID                                       : 0
    Format                                   : MPEG-4 Visual
    Format profile                           : Advanced Simple@L5
    Format settings, BVOP                    : 2
    Format settings, QPel                    : No
    Format settings, GMC                     : No warppoints
    Format settings, Matrix                  : Default (MPEG)
    Codec ID                                 : XVID
    Codec ID/Hint                            : XviD
    Duration                                 : 1h 24mn
    Bit rate                                 : 2 050 Kbps
    Width                                    : 720 pixels
    Height                                   : 400 pixels
    Display aspect ratio                     : 16:9
    Frame rate                               : 25.000 fps
    Color space                              : YUV
    Chroma subsampling                       : 4:2:0
    Bit depth                                : 8 bits
    Scan type                                : Progressive
    Compression mode                         : Lossy
    Bits/(Pixel*Frame)                       : 0.285
    Stream size                              : 1.21 GiB (89%)
    Writing library                          : XviD 1.2.1 (UTC 2008-12-04)

    Audio
    ID                                       : 1
    Format                                   : AC-3
    Format/Info                              : Audio Coding 3
    Mode extension                           : CM (complete main)
    Codec ID                                 : 2000
    Duration                                 : 1h 24mn
    Bit rate mode                            : Constant
    Bit rate                                 : 256 Kbps
    Channel(s)                               : 6 channels
    Channel positions                        : Front: L C R, Side: L R, LFE
    Sampling rate                            : 48.0 KHz
    Bit depth                                : 16 bits
    Compression mode                         : Lossy
    Stream size                              : 155 MiB (11%)
    Alignment                                : Split accross interleaves
    Interleave, duration                     : 40 ms (1.00 video frame)
    Interleave, preload duration             : 500 ms

    Скриншоты:

    Трейлеры к фильмам [2014]
    © Оформление by Raven piratbit.pw



  • Скачать Параллельные миры через торрент http://pic.kartinco.top/images/6/ordi9.jpg Скачать фильм Параллельные миры через торрент бесплантно в хорошем качестве Описание:Она одинока. Он случайно оказывается на ее балконе. Завязывается разговор, потом танец, потом странная перестановка в комнате - и ... 9.5 10 40
    Info! Золотая раздача, скачанное не засчитывается.
    Торрент: Зарегистрирован [2014-02-23 19:53] · скачан: 1 223 раз
    Статус: √ проверено
    Размер: 1.37 GB
    Как cкачать? Как скачать Параллельные миры через торрент | qTorrent

    % Раздел Тема Автор DL S | L
    Зарубежные сериалы [ 53.26 GB ] Скользящие / Путешествие в параллельные миры / Параллельные миры / Sliders / Сезон: 1-5 из 5 / Серии: 1-88 из 88 [1995 - 2000 DVDRip] MVO [SciFi] Serejechka Скачать
    1 | 0
    Документальные фильмы и телепередачи [ 81.9 GB ] Параллельный мир 2. [2012-2013 документальный непознанное TVRip ] кэп Скачать
    1 | 0
    Наши фильмы (DVD фильмы) [ 3.85 GB ] Параллельные миры [2013 DVD5] R5 voovaz Скачать
    1 | 0
    National Geographic [ 629 MB ] Параллельные миры / Living in a Parallel Universe [2011 Документальный/научно-популярный SATRip ] sheker187 Скачать
    1 | 0
    3D Фильмы [ 6.42 GB ] Параллельные миры в 3D / Upside Down in 3D [2012 BDRip 1080p ] Анаглиф slaventi-69 Скачать
    1 | 0
    3D Фильмы [ 7.99 GB ] Параллельные миры в 3D / Upside Down in 3D [2011 BDRip 1080p + Оригинал] Half OverUnder / Вертикальная анаморфная стереопара slaventi-69 Скачать
    1 | 0
    Фильмы [HD 720p, 1080p] (Хороший звук DUB, MVO) [ 6.91 GB ] Параллельные миры / Upside Down [2012 BDRip 720p DUB лицензия] AlexKa Скачать
    1 | 0


    Последний раз редактировалось: Ворон (2014-04-11 05:57), всего редактировалось 1 раз

    28-11-2019 20:33  

    Отключить всю рекламу на сайте

    24-02-2014 08:52 Параллельные миры Скачать торрент  

    КУЙНЯ ?????piratbit.pw



      Дорогой пользователь! Огромная просьба, поблагодарите релизера, оцените раздачу и оставьте свои комментарий, если Вы скачали Параллельные миры через торрент бесплатно! Внесите свою лепту в развитие PiratBit!
      Комментировать посты могут только пользователи прошедшие не сложную регистрацию
      Показать сообщения:    

      Параллельные миры через торрент
      Скачать бесплатно Параллельные миры
      Параллельные миры скачать торрент
      Параллельные миры смотреть онлайн
      Cкачать фильм Параллельные миры бесплатно
      Параллельные миры скачать торрент в хорошем качестве
      Параллельные миры смотреть онлайн бесплатно в хорошем качестве


      Вы не можете начинать темы
      Вы не можете отвечать на сообщения
      Вы не можете редактировать свои сообщения
      Вы не можете удалять свои сообщения
      Вы не можете голосовать в опросах
      Вы не можете прикреплять файлы к сообщениям
      Вы можете скачивать файлы