Marvel's Avengers Deluxe Edition (супер цена) 159р. Внимание количество ограничено!!!

2 сезон

iTunes

iTunes

1

iTunes

iTunes

iTunes

WEBRip

iTunes

30
pack

Новость дня

ВАЖНО

!!Акция!!

Alien_RageХит недели

RePack

Horizon Zero Dawn

ИГРА 18+

pack

RePack

jed

!!Акция!!

Alien_Rage

RePack

fifa19

RePack

Assassins Creed: Odyssey

RePack

NEED FOR SPEED™ PAYBACK

4 сезон

9 сезон

Бесстыжие 9 сезон

Все сериалы

все сериалы на PB.wtf

RePack

FAR CRY 5
  

Чемпионы (Алексей Вакулов, Артем Аксененко, Дмитрий Дюжев) [2014, спорт, драма, BDRip 1080p] |Лицензия| piratbit.pw

Чемпионы через торрент piratbit.pw

Размер: 7.25 GB | Добавлен: 6 лет 6 мес. назад | Торрент скачан:288 раз
Скачать  

21-02-2014 20:35 Чемпионы Скачать торрент  

Чемпионы
Год выпуска: 2014
Страна: Россия
Жанр: спорт, драма
Продолжительность: 01:37:51
Перевод: Оригинал |Лицензия|

Режиссер: Алексей Вакулов, Артем Аксененко, Дмитрий Дюжев
Продюсер: Георгий Малков, Сарик Андреасян, Гевонд Андреасян
Сценарий: Леонид Марголин, Александр Маркин, Эмиль Никогосян

В ролях: Светлана Ходченкова, Алексей Чадов, Марк Богатырёв, Андрей Смоляков, Константин Крюков, Татьяна Арнтгольц, Таисия Вилкова, Александр Молочников, Максим Виторган, Ангелина Добророднова, Ольга Тумайкина, Андрей Федорцов, Екатерина Климова, Михаил Горевой, Игорь Верник, Дмитрий Губерниев, Виктор Гусев (III), Семен Трескунов, Юлия Гришина, Андрис Лиелайс, Анатолий Лобоцкий, Александр Сазонов, Андрей Лебедев, Тимур Ефременков, Егор Клинаев, Виталий Абдулов, Евгений Шириков

Описание: Пять реальных историй больших побед российских спортсменов. И за каждой победой стоят человеческие истории, в которых переплетаются любовь, предательство, дружба, уважение, труд и вера. Вера в себя, вера в победу.

3.10 (238)


Качество: BDRip 1080p
Формат: MKV
Видео кодек: AVC
Аудио кодек: AC3 / DTS
Видео: 1920x804 (2,40:1), 24 fps, 9181 kbps avg, 0.248 bit/pixel
Аудио: 48 kHz, AC3 Dolby Digital, 3/2 (L,C,R,l,r) + LFE ch, ~448 kbps
Аудио: 48 kHz, DTS, 3/2 (L,C,R,l,r) + LFE ch, ~768kbps

Общее
Уникальный идентификатор : 187249838921693457267512107934439000957 (0x8CDF01D6F2B628379080C7A8FCD14B7D)
Полное имя : C:торрентыChempions.2014.1080p.BluRay.Rus.mkv
Формат : Matroska
Версия формата : Version 2
Размер файла : 7,25 Гбайт
Продолжительность : 1 ч. 37 м.
Общий поток : 10,6 Мбит/сек
Название фильма : Reliase for HDClub
Дата кодирования : UTC 2014-02-21 14:37:08
Программа кодирования : mkvmerge v6.7.0 ('Back to the Ground') 64bit built on Jan 8 2014 15:10:52
Библиотека кодирования : libebml v1.3.0 + libmatroska v1.4.1

Видео
Идентификатор : 1
Формат : AVC
Формат/Информация : Advanced Video Codec
Профиль формата : High@L4.1
Параметр CABAC формата : Да
Параметр ReFrames формата : 5 кадров
Идентификатор кодека : V_MPEG4/ISO/AVC
Продолжительность : 1 ч. 37 м.
Битрейт : 9181 Кбит/сек
Ширина : 1920 пикселей
Высота : 804 пикселя
Соотношение сторон : 2,40:1
Режим частоты кадров : Постоянный
Частота кадров : 24,000 кадра/сек
Цветовое пространство : YUV
Субдискретизация насыщенности : 4:2:0
Битовая глубина : 8 бит
Тип развёртки : Прогрессивная
Бит/(Пиксели*Кадры) : 0.248
Размер потока : 6,28 Гбайт (87%)
Заголовок : Chempions.2014.1080p.BluRay.Rus.HDClub
Библиотека кодирования : x264 core 140 r2377+40 929f149 tMod [8-bit@all X86_64]
Настройки программы : cabac=1 / ref=5 / deblock=1:-3:-3 / analyse=0x3:0x133 / me=umh / subme=11 / psy=1 / fade_compensate=0.00 / psy_rd=1.00:0.00 / mixed_ref=1 / me_range=32 / chroma_me=1 / trellis=2 / 8x8dct=1 / cqm=0 / deadzone=21,11 / fast_pskip=0 / chroma_qp_offset=-2 / threads=12 / lookahead_threads=2 / sliced_threads=0 / nr=0 / decimate=1 / interlaced=0 / bluray_compat=0 / constrained_intra=0 / fgo=0 / bframes=7 / b_pyramid=2 / b_adapt=2 / b_bias=0 / direct=1 / weightb=1 / open_gop=0 / weightp=2 / keyint=240 / keyint_min=24 / scenecut=40 / intra_refresh=0 / rc_lookahead=60 / rc=crf / mbtree=0 / crf=18.0000 / qcomp=0.70 / qpmin=0:0:0 / qpmax=69:69:69 / qpstep=4 / vbv_maxrate=50000 / vbv_bufsize=62500 / crf_max=0.0 / nal_hrd=none / filler=0 / ip_ratio=1.25 / pb_ratio=1.15 / aq=4:0.80 / aq-sensitivity=10.00 / aq-factor=1.00:1.00:1.00 / aq2=0 / aq3=0
Язык : Russian
Default : Да
Forced : Нет
Основные цвета : BT.709
Характеристики трансфера : BT.709
Коэффициенты матрицы : BT.709

Аудио #1
Идентификатор : 2
Формат : DTS
Формат/Информация : Digital Theater Systems
Режим : 16
Параметр Endianness формата : Big
Идентификатор кодека : A_DTS
Продолжительность : 1 ч. 37 м.
Вид битрейта : Постоянный
Битрейт : 768 Кбит/сек
Каналы : 6 каналов
Расположение каналов : Front: L C R, Side: L R, LFE
Частота : 48,0 КГц
Битовая глубина : 16 бит
Метод сжатия : С потерями
Размер потока : 538 Мбайт (7%)
Заголовок : DTS 5.1 @ 768 - Blu-Ray Rus [LPCM 5.1 -> DTS 5.1]
Язык : Russian
Default : Да
Forced : Нет

Аудио #2
Идентификатор : 3
Формат : AC-3
Формат/Информация : Audio Coding 3
Расширение режима : CM (complete main)
Параметр Endianness формата : Big
Идентификатор кодека : A_AC3
Продолжительность : 1 ч. 37 м.
Вид битрейта : Постоянный
Битрейт : 448 Кбит/сек
Каналы : 6 каналов
Расположение каналов : Front: L C R, Side: L R, LFE
Частота : 48,0 КГц
Битовая глубина : 16 бит
Метод сжатия : С потерями
Размер потока : 314 Мбайт (4%)
Язык : Russian
Default : Нет
Forced : Нет

Меню
00:00:00.000 : ru:Chapter 1
00:00:04.000 : ru:Chapter 2
00:10:56.708 : ru:Chapter 3
00:25:52.875 : ru:Chapter 4
00:36:33.250 : ru:Chapter 5
00:52:38.541 : ru:Chapter 6
01:01:39.833 : ru:Chapter 7
01:17:17.750 : ru:Chapter 8
01:29:19.875 : ru:Chapter 9

скриншот   скриншот   скриншот   скриншот  
piratbit.pw



Скачать Чемпионы через торрент http://pic.kartinco.top/images/6/jwa3f.jpg Скачать фильм Чемпионы через торрент бесплантно в хорошем качестве Описание: Пять реальных историй больших побед российских спортсменов. И за каждой победой стоят человеческие истории, в которых ... 9.7 10 12
Info! Золотая раздача, скачанное не засчитывается.
Торрент: Зарегистрирован [2014-02-22 11:55] · скачан: 288 раз
Статус: √ проверено
Размер: 7.25 GB
Как cкачать? Как скачать Чемпионы через торрент | qTorrent

% Раздел Тема Автор DL S | L
Наши новые фильмы 2016 [ 2.18 GB ] Чемпионы: Быстрее. Выше. Сильнее [2016 BDRip-AVC от _denis_100 / NNNB] _denis_100 Скачать
1 | 0
Наши фильмы (HD, WEB-DL 720p, 1080p) [ 5.75 GB ] Чемпионы: Быстрее. Выше. Сильнее [2016 BDRip 720p] [] potroks Скачать
1 | 0
Наши новые фильмы 2016 [ 2.17 GB ] Чемпионы: Быстрее. Выше. Сильнее [2016 BDRip-AVC] [] potroks Скачать
1 | 0
R.G. Resident & PiratVoice - Фильмы, Видео [ 1.55 GB ] Чемпионы: Быстрее. Выше. Сильнее [2016 BDRip-AVC Оригинальный [] R.G.Resident schultz Скачать
1 | 0
Наши новые фильмы 2016 [ 1.46 GB ] Чемпионы: Быстрее. Выше. Сильнее [2016 BDRip-AVC] [] potroks Скачать
1 | 0
Наши новые фильмы 2016 [ 1.46 GB ] Чемпионы: Быстрее. Выше. Сильнее [2016 BDRip Оригинал [] Twi7ter Скачать
1 | 0
Наши новые фильмы 2016 [ 2.04 GB ] Чемпионы: Быстрее. Выше. Сильнее [2016 HDRip Оригинал ""] coc900 Скачать
1 | 0

28-11-2019 20:33  

Отключить всю рекламу на сайте

23-02-2014 14:17 Чемпионы Скачать торрент  

отличный фильм!
хорошо поставлен и снят. замечательная игра актеров и драматическая линия.
Все таки наши не перестают делать добрые и душевные фильмы.
А то от голливудской однообразной штамповки уже тошнит.
Спасибо за раздачу!piratbit.pw



23-02-2014 16:56 Чемпионы Скачать торрент  

Какая чуууушь! ((((piratbit.pw



    Дорогой пользователь! Огромная просьба, поблагодарите релизера, оцените раздачу и оставьте свои комментарий, если Вы скачали Чемпионы через торрент бесплатно! Внесите свою лепту в развитие PiratBit!
    Комментировать посты могут только пользователи прошедшие не сложную регистрацию
    Показать сообщения:    

    Чемпионы через торрент
    Скачать бесплатно Чемпионы
    Чемпионы скачать торрент
    Чемпионы смотреть онлайн
    Cкачать фильм Чемпионы бесплатно
    Чемпионы скачать торрент в хорошем качестве
    Чемпионы смотреть онлайн бесплатно в хорошем качестве


    Вы не можете начинать темы
    Вы не можете отвечать на сообщения
    Вы не можете редактировать свои сообщения
    Вы не можете удалять свои сообщения
    Вы не можете голосовать в опросах
    Вы не можете прикреплять файлы к сообщениям
    Вы можете скачивать файлы