2 сезон

iTunes

1 сезон

1

iTunes

iTunes

iTunes

1 сезон

RePack

30

ИГРА 18+

pack

ВАЖНО

!!Акция!!

Alien_RageХит недели

RePack

MK11
pack

Забери бонус

RePack

jed

!!Акция!!

Alien_Rage

RePack

fifa19

RePack

Assassins Creed: Odyssey

RePack

NEED FOR SPEED™ PAYBACK

4 сезон

9 сезон

Бесстыжие 9 сезон

Все сериалы

все сериалы на PB.wtf

RePack

FAR CRY 5
  

Лед (Павел Дроздов) [2014, Россия, драма, семейный, спорт, SATRip] piratbit.pw

Лед через торрент piratbit.pw

Размер: 1.37 GB | Добавлен: 6 лет 8 мес. назад | Торрент скачан:1335 раз
Скачать  

21-02-2014 19:28 Лед Скачать торрент  


Лед

«Evil wears many faces»

  • Год выпуска:2014
  • Страна:Россия
  • Жанр: драма, семейный, спорт
  • Продолжительность: 01:25:35
  • Перевод: Не требуется

  • Субтитры: Нет
  • Режиссер:Павел Дроздов
  • В ролях: Иван Краско, Александр Половцев, Александр Морозов, Елена Соколова, Дмитрий Чистяков
    • Описание:
      Саша - юный и дерзкий хоккеист. После того как его выгнали из команды, он с матерью-врачом переезжает в другой город. Здесь ему и его матери предстоит не только стать частью своей новой команды, но и построить личную жизнь и найти взаимопонимание.

    • Качество:SATRip
    • Формат:AVI
    • Видео кодек: DivX 5
    • Аудио кодек:MP3
    • Видео: 720x304 (2.35:1), 2166 kbps, 25 fps
    • Аудио: MPEG-1/2 L3 / 2.0 / 48 kHz / 128 kbps /


    Код:

    General
    Complete name                            : D:ТорентыLed.2014.O.SATRip..1400Mb.avi
    Format                                   : AVI
    Format/Info                              : Audio Video Interleave
    File size                                : 1.37 GiB
    Duration                                 : 1h 25mn
    Overall bit rate                         : 2 288 Kbps
    Writing library                          : VirtualDub build 35491/release

    Video
    ID                                       : 0
    Format                                   : MPEG-4 Visual
    Format settings, BVOP                    : 1
    Format settings, QPel                    : No
    Format settings, GMC                     : No warppoints
    Format settings, Matrix                  : Default (H.263)
    Muxing mode                              : Packed bitstream
    Codec ID                                 : DX50
    Codec ID/Hint                            : DivX 5
    Duration                                 : 1h 25mn
    Bit rate                                 : 2 151 Kbps
    Width                                    : 720 pixels
    Height                                   : 304 pixels
    Display aspect ratio                     : 2.35:1
    Frame rate                               : 25.000 fps
    Color space                              : YUV
    Chroma subsampling                       : 4:2:0
    Bit depth                                : 8 bits
    Scan type                                : Progressive
    Compression mode                         : Lossy
    Bits/(Pixel*Frame)                       : 0.393
    Stream size                              : 1.29 GiB (94%)
    Writing library                          : DivX 6.8.5 (UTC 2009-08-20)

    Audio
    ID                                       : 1
    Format                                   : MPEG Audio
    Format version                           : Version 1
    Format profile                           : Layer 3
    Mode                                     : Joint stereo
    Mode extension                           : MS Stereo
    Codec ID                                 : 55
    Codec ID/Hint                            : MP3
    Duration                                 : 1h 25mn
    Bit rate mode                            : Constant
    Bit rate                                 : 128 Kbps
    Channel(s)                               : 2 channels
    Sampling rate                            : 48.0 KHz
    Compression mode                         : Lossy
    Stream size                              : 78.4 MiB (6%)
    Alignment                                : Split accross interleaves
    Interleave, duration                     : 40 ms (1.00 video frame)
    Interleave, preload duration             : 500 ms

    Скриншоты:

    Трейлеры к фильмам [2014]
    © Оформление by Raven piratbit.pw



  • Скачать Лед через торрент http://pic.kartinco.top/images/6/ordi9.jpg Скачать фильм Лед через торрент бесплантно в хорошем качестве Описание:Саша - юный и дерзкий хоккеист. После того как его выгнали из команды, он с матерью-врачом переезжает в другой город. Здесь ему и ... 9.6 10 27
    Info! Золотая раздача, скачанное не засчитывается.
    Торрент: Зарегистрирован [2014-02-21 19:28] · скачан: 1 335 раз
    Статус: √ проверено
    Размер: 1.37 GB
    Как cкачать? Как скачать Лед через торрент | qTorrent

    % Раздел Тема Автор DL S | L
    Фильмы 2009 [ 2.18 GB ] Последний дом слева / Last House on the Left The [2009 BDRip] Lil Badun Скачать
    2 | 0
    RPG [ 4.12 GB ] Sacred 2: Ice & Blood / Sacred 2: Лед и кровь [L] Shmel Скачать
    1 | 0
    Фильмы 2001-2005 [ 2.51 GB ] Последняя фантазия / Final Fantasy: The Spirits Within [2001 мультфильм BDRip] feldeger Скачать
    1 | 0
    RPG [ 14.35 GB ] Sacred 2 Gold: Падший Ангел + Лёд и Кровь [лицензияRUАкелла] Shmel Скачать
    1 | 0
    Аркады [ 398 MB ] Буратилло идет по следу [ПираткаRUNevosoft] =Чувак= Скачать
    1 | 0
    Аркады [ 87 MB ] Веселая ферма 3. Ледниковый период[ПираткаRUAlawar Entertainment] Anonymous Скачать
    2 | 0
    Фильмы до 2000 г. [ 1.46 GB ] Заплати Другому / Pay it Forward [2000 любовный роман HDTVRip] vocalbur Скачать
    2 | 0

    28-11-2019 20:33  

    Отключить всю рекламу на сайте

    23-02-2014 17:37 Лед Скачать торрент  

    Зачетный фильмец,спасибо!piratbit.pw



    28-02-2014 06:51 Лед Скачать торрент  

    piratbit.pw



      Дорогой пользователь! Огромная просьба, поблагодарите релизера, оцените раздачу и оставьте свои комментарий, если Вы скачали Лед через торрент бесплатно! Внесите свою лепту в развитие PiratBit!
      Комментировать посты могут только пользователи прошедшие не сложную регистрацию
      Показать сообщения:    

      Лед через торрент
      Скачать бесплатно Лед
      Лед скачать торрент
      Лед смотреть онлайн
      Cкачать фильм Лед бесплатно
      Лед скачать торрент в хорошем качестве
      Лед смотреть онлайн бесплатно в хорошем качестве


      Вы не можете начинать темы
      Вы не можете отвечать на сообщения
      Вы не можете редактировать свои сообщения
      Вы не можете удалять свои сообщения
      Вы не можете голосовать в опросах
      Вы не можете прикреплять файлы к сообщениям
      Вы можете скачивать файлы