1 сезон

3 сезон

iTunes

1

iTunes

DUB Netflix

iTunes

13

1 сезон

RePack

30

Deluxe

pack

Легкие деньги

ВАЖНО

ИГРА 18+

pack

RePack

MK11

RePack

jed

RePack

fifa19

RePack

RDR2

RePack

NEED FOR SPEED™ PAYBACK

4 сезон

9 сезон

Бесстыжие 9 сезон

Все сериалы

все сериалы на PB.wtf

RePack

FAR CRY 5

Anonymous, доброй ночи, мы не успеваем до 1 числа собрать деньги на оплату серверов, помогите нам пожалуйста в это трудное время. В качестве благодарности мы отключим Вам всю рекламу на сайте (укажите свой ник в строку Ваше имя)!

×
  
Magnet ссылка

Джеймси / Jamesy Boy (Тревор Уайт) [2014 г., криминал, драма, WEB-DLRip, Любительский одноголосый] piratbit.pw

Джеймси через торрент piratbit.pw

Размер: 1.36 GB | Добавлен: 7 лет 4 мес. назад | Торрент скачан:641 раз
Скачать  

19-02-2014 19:11 Джеймси Скачать торрент  

Джеймси / Jamesy Boy
Год выпуска: 2014
Страна: США
Жанр: криминал, драма,
Продолжительность: 01:49:33
Перевод: Одноголосый закадровый
Субтитры: нет

Режиссер: Тревор Уайт
Продюссер: Скотт Медник, Мария Норман, Уэйн Роджерс
Сценарий: Лэйн Шадгетт, Тревор Уайт

Премьера в мире: 3 января 2014

http://www.kinopoisk.ru/film/550880/

В ролях: Дженьюэри Джонс, Эд Харрис, Джейсон Айзекс, Эдуардо Норьега, Стивен Рут, Джейсон Алдин, Вик Браудер, Люче Рэйнс, Дилан Кенин, Кит Мэривезер,

Описание: Реальная история Джеймса Бёрнса, который еще подростком связался с уличными бандами Денвера и в результате попал в тюрьму строгого режима. Но, несмотря на всё это, Джеймс всё же верит в светлое будущее.

Качество: WEB-DLRip
Формат: AVI
Видео кодек: XviD
Аудио кодек: MP3
Видео: XVID, 1582 kb/s, 720x304, 23,976 кадра/сек
Аудио#1: MP3 , 192 kb/s, (2 ch), 44,1 КГц







Полное имя : C:UsersAdminDownloadsJamesy.Boy.2014.L1.WEBDLRip.1400MB.avi
Формат : AVI
Формат/Информация : Audio Video Interleave
Размер файла : 1,36 Гбайт
Продолжительность : 1 ч. 49 м.
Общий поток : 1783 Кбит/сек
Программа кодирования : VirtualDubMod 1.5.10.3 | www.virtualdub-fr.org || (build 2550/release)
Библиотека кодирования : VirtualDubMod build 2550/release

Видео
Идентификатор : 0
Формат : MPEG-4 Visual
Профиль формата : Advanced Simple@L5
Параметр BVOP формата : 1
Параметр QPel формата : Нет
Параметр GMC формата : Без точки перехода
Параметр матрицы формата : Выборочная
Идентификатор кодека : XVID
Идентификатор кодека/Подсказка : XviD
Продолжительность : 1 ч. 49 м.
Битрейт : 1582 Кбит/сек
Ширина : 720 пикселей
Высота : 304 пикселя
Соотношение сторон : 2,35:1
Частота кадров : 23,976 кадра/сек
Цветовое пространство : YUV
Субдискретизация насыщенности : 4:2:0
Битовая глубина : 8 бит
Тип развёртки : Прогрессивная
Метод сжатия : С потерями
Бит/(Пиксели*Кадры) : 0.301
Размер потока : 1,21 Гбайт (89%)
Библиотека кодирования : XviD 1.2.1 (UTC 2008-12-04)

Аудио
Идентификатор : 1
Формат : MPEG Audio
Версия формата : Version 1
Профиль формата : Layer 3
Идентификатор кодека : 55
Идентификатор кодека/Подсказка : MP3
Продолжительность : 1 ч. 49 м.
Вид битрейта : Постоянный
Битрейт : 192 Кбит/сек
Каналы : 2 канала
Частота : 44,1 КГц
Метод сжатия : С потерями
Размер потока : 150 Мбайт (11%)
Выравнивание : Разделение по промежуткам
Продолжительность промежутка : 42 мс. (1,00 видеокадр)
Время предзагрузки промежутка : 500 мс.


Джеймси скачать торрент


piratbit.pw



Скачать Джеймси через торрент https://pic1.kartinco.top/images/61/gw4v5.jpg Скачать фильм Джеймси через торрент бесплантно в хорошем качестве Описание: Реальная история Джеймса Бёрнса, который еще подростком связался с уличными бандами Денвера и в результате попал в тюрьму ... 9.8 10 20
Info! Золотая раздача, скачанное не засчитывается.
Торрент: Зарегистрирован [2014-02-19 19:11] · скачан: 641 раз
Статус: T временная
Размер: 1.36 GB
Как cкачать? Как скачать Джеймси через торрент | UTorrent

% Раздел Тема Автор DL S | L
T Фильмы (Blu-ray, BD-Remux, HDDVD) [ 16.29 GB ] Джеймси / Jamesy Boy [2014 BDRemux Любительский одноголосый] Ворон Скачать
1 | 0
T Фильмы 2014 (Звук TS, Cam, VO, DVO) [ 1.45 GB ] Джеймси / Jamesy Boy [2014 музыка HDRip Любительский одноголосый] coc900 Скачать
1 | 0

28-11-2019 20:33  

Отключить всю рекламу на сайте

    Дорогой пользователь! Огромная просьба, поблагодарите релизера, оцените раздачу и оставьте свои комментарий, если Вы скачали Джеймси через торрент бесплатно! Внесите свою лепту в развитие PiratBit!
    Комментировать посты могут только пользователи прошедшие не сложную регистрацию
    Показать сообщения:    

    Джеймси через торрент
    Скачать бесплатно Джеймси
    Джеймси скачать торрент
    Джеймси смотреть онлайн
    Cкачать фильм Джеймси бесплатно
    Джеймси скачать торрент в хорошем качестве
    Джеймси смотреть онлайн бесплатно в хорошем качестве


    Вы не можете начинать темы
    Вы не можете отвечать на сообщения
    Вы не можете редактировать свои сообщения
    Вы не можете удалять свои сообщения
    Вы не можете голосовать в опросах
    Вы не можете прикреплять файлы к сообщениям
    Вы можете скачивать файлы