1 сезон

1 сезон

iTunes

1

КиноПоиск HD

Кинопоиск HD

iTunes

13

1 сезон

RePack

30

Ultimate

ВАЖНО

ИГРА 18+

pack

RePack

MK11
pack

Легкие деньги

RePack

jed

RePack

fifa19

RePack

RDR2

RePack

NEED FOR SPEED™ PAYBACK

4 сезон

9 сезон

Бесстыжие 9 сезон

Все сериалы

все сериалы на PB.wtf

RePack

FAR CRY 5
  
Magnet ссылка

Джон Кью / John Q (Ник Кассаветис / Nick Cassavetes) [2002, Триллер, драма, криминал, HDRip] [AVO] (Живов) piratbit.pw

Джон Кью через торрент piratbit.pw

Размер: 1.46 GB | Добавлен: 7 лет 2 мес. назад | Торрент скачан:75 раз
Скачать  

13-02-2014 16:21 Джон Кью Скачать торрент  

Джон Кью / John Q

Год выпуска: 2002
Страна: США
Жанр: Триллер, драма, криминал
Продолжительность: 01:56:05
Перевод: Авторский (одноголосый, закадровый) [Юрий Живов]
Cубтитры: нет
Режиссер: Ник Кассаветис / Nick Cassavetes

В ролях: Дензел Вашингтон, Джеймс Вудс, Энн Хеч, Рэй Лиотта, Габриела Олтин, Кимберли Элиз, Рон Аннабелль, Дэниэл Э. Смит, Дэвид Торнтон, Бэрри Дж. Кинг, Лаура Хэрринг, Кевин Коннолли, Ларисса Ласкин
Описание: Джон Кью — рядовой американец, вкалывающий на фабрике и любящий свою семью. Смыслом его жизни является жена Дэниз и сын Майкл. Когда Майкл попадает в больницу с серьезным заболеваем и ему для спасения требуется операция по пересадке сердца, на которую у семьи нет денег, Джон решает сделать все от него зависящее, чтобы спасти мальчику жизнь. Он решает взять в заложники работников больницы с требованием прооперировать сына.

Качество: HDRip
Формат: AVI
Видео кодек: XviD
Аудио кодек: AC3
Видео: 704x400 (1.76:1), 23.976 fps, XviD build 50 ~1346 kbps avg, 0.20 bit/pixel
Аудио: 48 kHz, AC3 Dolby Digital, 3/2 (L,C,R,l,r) + LFE ch, ~448.00 kbps avg
General
Complete name : E:INTERNETJohn.Q.2002.avi
Format : AVI
Format/Info : Audio Video Interleave
File size : 1.46 GiB
Duration : 1h 56mn
Overall bit rate : 1 804 Kbps
Writing application : VirtualDubMod 1.5.10.2 (build 2540/release)
Writing library : VirtualDubMod build 2540/release

Video
ID : 0
Format : MPEG-4 Visual
Format profile : Advanced Simple@L5
Format settings, BVOP : 2
Format settings, QPel : No
Format settings, GMC : No warppoints
Format settings, Matrix : Custom
Codec ID : XVID
Codec ID/Hint : XviD
Duration : 1h 56mn
Bit rate : 1 347 Kbps
Width : 704 pixels
Height : 400 pixels
Display aspect ratio : 16:9
Frame rate : 23.976 fps
Color space : YUV
Chroma subsampling : 4:2:0
Bit depth : 8 bits
Scan type : Progressive
Compression mode : Lossy
Bits/(Pixel*Frame) : 0.199
Stream size : 1.09 GiB (75%)
Writing library : XviD 1.2.1 (UTC 2008-12-04)

Audio
ID : 1
Format : AC-3
Format/Info : Audio Coding 3
Mode extension : CM (complete main)
Codec ID : 2000
Duration : 1h 56mn
Bit rate mode : Constant
Bit rate : 448 Kbps
Channel(s) : 6 channels
Channel positions : Front: L C R, Side: L R, LFE
Sampling rate : 48.0 KHz
Bit depth : 16 bits
Compression mode : Lossy
Stream size : 372 MiB (25%)
Alignment : Split accross interleaves
Interleave, duration : 42 ms (1.00 video frame)
Interleave, preload duration : 500 ms
piratbit.pw



Скачать Джон Кью через торрент http://i33.fastpic.ru/big/2014/0213/8b/4ea013c23a2134f4b4726500e435a48b.jpg Скачать фильм Джон Кью через торрент бесплантно в хорошем качестве Описание: Джон Кью — рядовой американец, вкалывающий на фабрике и любящий свою семью. Смыслом его жизни является жена Дэниз и сын Майкл. ... 8 10 6
Info! Золотая раздача, скачанное не засчитывается.
Торрент: Зарегистрирован [2014-02-13 16:21] · скачан: 75 раз
Статус: √ проверено
Размер: 1.46 GB
Как cкачать? Как скачать Джон Кью через торрент | UTorrent

% Раздел Тема Автор DL S | L
Фильмы [HD 720p, 1080p] (Хороший звук DUB, MVO) [ 4.37 GB ] Джон Кью / John Q [2002 BDRip 720p многоголосый] кэп Скачать
2 | 0
Фильмы 2001-2005 [ 1.37 GB ] Джон Кью / John Q [2002 . HDRip] Alckash Скачать
1 | 0

28-11-2019 20:33  

Отключить всю рекламу на сайте

    Дорогой пользователь! Огромная просьба, поблагодарите релизера, оцените раздачу и оставьте свои комментарий, если Вы скачали Джон Кью через торрент бесплатно! Внесите свою лепту в развитие PiratBit!
    Комментировать посты могут только пользователи прошедшие не сложную регистрацию
    Показать сообщения:    

    Джон Кью через торрент
    Скачать бесплатно Джон Кью
    Джон Кью скачать торрент
    Джон Кью смотреть онлайн
    Cкачать фильм Джон Кью бесплатно
    Джон Кью скачать торрент в хорошем качестве
    Джон Кью смотреть онлайн бесплатно в хорошем качестве


    Вы не можете начинать темы
    Вы не можете отвечать на сообщения
    Вы не можете редактировать свои сообщения
    Вы не можете удалять свои сообщения
    Вы не можете голосовать в опросах
    Вы не можете прикреплять файлы к сообщениям
    Вы можете скачивать файлы