Marvel's Avengers Deluxe Edition (супер цена) 159р. Внимание количество ограничено!!!

2 сезон

iTunes

iTunes

1

iTunes

iTunes

iTunes

WEBRip

iTunes

30
pack

Новость дня

ВАЖНО

!!Акция!!

Alien_RageХит недели

RePack

Horizon Zero Dawn

ИГРА 18+

pack

RePack

jed

!!Акция!!

Alien_Rage

RePack

fifa19

RePack

Assassins Creed: Odyssey

RePack

NEED FOR SPEED™ PAYBACK

4 сезон

9 сезон

Бесстыжие 9 сезон

Все сериалы

все сериалы на PB.wtf

RePack

FAR CRY 5
  

Тёмный мир: Равновесие (Олег Асадулин) [2013 г., фэнтези, приключения, WEB-DL 1080p] piratbit.pw

Тёмный мир: Равновесие через торрент piratbit.pw

Размер: 3.08 GB | Добавлен: 6 лет 7 мес. назад | Торрент скачан:273 раза
Скачать  

05-01-2014 16:41 Тёмный мир: Равновесие Скачать торрент  

Тёмный мир: Равновесие
Год выпуска: 2013
Страна: Россия
Жанр: фэнтези, приключения,
Продолжительность: 01:35:01
Перевод: Оригинал

Режиссер: Олег Асадулин
Продюссер: Наталия Клибанова
Сценарий: Сергей Дяченко, Марина Дяченко

Бюджет: $2 118 871
Премьера в мире: 5 декабря 2013

IMDB 3.90 (51)


В ролях: Мария Пирогова, Павел Прилучный, Макар Запорожский, Евгения Брик, Александр Ратников, Владислав Абашин, Петр Семак, Алиса Хазанова, Валерий Опёнкин, Тимофей Носков,

Описание: Каждый день они крадут твои силы, твои эмоции, твою любовь. Мы называем их Тени. Работа таких, как мы — доставлять их обратно в Тёмный мир. Надвигается катастрофа, и человечество может оказаться во власти тьмы...И только мы можем сохранить равновесие.

Качество: WEB-DL 1080p
Формат: MKV
Видео кодек: AVC
Аудио кодек: AC3
Видео: MPEG4(AVC), 1920x812 (2.35:1), 24 fps, 4 157 Kbps, (0.111 bit/pixel)
Аудио#1: 48 kHz, AC3, 3/2 (L,C,R,l,r) + LFE ch, ~384.00 kbps avg
Релиз: Шмель
скриншот   скриншот   скриншот   скриншот   скриншот  

General
Unique ID : 252808954475171177334285594738499575298 (0xBE313BCACDDE94E09B0D81199E14DE02)
Complete name : D:ФильмыTemnyy.mir.Ravnovesie.2013.1080p.WEB_DL.Rus.PiratBit.Net.mkv
Format : Matroska
Format version : Version 2
File size : 3.08 GiB
Duration : 1h 35mn
Overall bit rate : 4 633 Kbps
Encoded date : UTC 2014-01-05 15:46:36
Writing application : mkvmerge v3.4.0 ('Rapunzel') сборка от May 15 2010 09:38:20
Writing library : libebml v0.8.0 + libmatroska v0.9.0

Video
ID : 1
Format : AVC
Format/Info : Advanced Video Codec
Format profile : High@L4.0
Format settings, CABAC : Yes
Format settings, ReFrames : 5 frames
Codec ID : V_MPEG4/ISO/AVC
Duration : 1h 35mn
Bit rate : 4 157 Kbps
Width : 1 920 pixels
Height : 812 pixels
Display aspect ratio : 2.35:1
Frame rate mode : Constant
Frame rate : 24.000 fps
Color space : YUV
Chroma subsampling : 4:2:0
Bit depth : 8 bits
Scan type : Progressive
Bits/(Pixel*Frame) : 0.111
Stream size : 2.76 GiB (90%)
Title : Temnyy mir: Ravnovesie (2013) - Release for PiratBit.Net
Language : English
Default : Yes
Forced : No
Color primaries : BT.709
Transfer characteristics : BT.709
Matrix coefficients : BT.709

Audio
ID : 2
Format : AC-3
Format/Info : Audio Coding 3
Mode extension : CM (complete main)
Format settings, Endianness : Big
Codec ID : A_AC3
Duration : 1h 35mn
Bit rate mode : Constant
Bit rate : 384 Kbps
Channel count : 6 channels
Channel positions : Front: L C R, Side: L R, LFE
Sampling rate : 48.0 KHz
Bit depth : 16 bits
Compression mode : Lossy
Stream size : 261 MiB (8%)
Language : Russian
Default : Yes
Forced : No

Menu
00:00:00.000 : en:Глава 1
00:08:13.000 : en:Глава 2
00:13:01.000 : en:Глава 3
00:17:50.000 : en:Глава 4
00:22:40.000 : en:Глава 5
00:27:29.000 : en:Глава 6
00:32:30.000 : en:Глава 7
00:37:18.000 : en:Глава 8
00:42:07.000 : en:Глава 9
00:46:58.000 : en:Глава 10
00:51:48.000 : en:Глава 11
00:56:44.000 : en:Глава 12
01:01:33.000 : en:Глава 13
01:06:27.000 : en:Глава 14
01:11:22.000 : en:Глава 15
01:16:12.000 : en:Глава 16
01:21:04.000 : en:Глава 17
01:25:54.000 : en:Глава 18


Тёмный мир: Равновесие скачать торрент


piratbit.pw



Скачать Тёмный мир: Равновесие через торрент http://pic.kartinco.top/images/6/k2qxa.jpg Скачать фильм Тёмный мир: Равновесие через торрент бесплантно в хорошем качестве Описание: Каждый день они крадут твои силы, твои эмоции, твою любовь. Мы называем их Тени. Работа таких, как мы — доставлять их обратно в ... 9.9 10 15
Info! Золотая раздача, скачанное не засчитывается.
Торрент: Зарегистрирован [2014-02-12 19:18] · скачан: 273 раз
Статус: √ проверено
Размер: 3.08 GB
Как cкачать? Как скачать Тёмный мир: Равновесие через торрент | qTorrent

% Раздел Тема Автор DL S | L
Наши новые фильмы 2013 [ 1.46 GB ] Тёмный мир: Равновесие [2013 WEB-DLRip] MihailHD Скачать
1 | 0
Наши сериалы [ 13.21 GB ] Тёмный мир: Равновесие [01-12 из 12] [2014 WEB-DLRip 720p] Assasinca Скачать
1 | 0
Наши фильмы (Blu-ray, BD-Remux, HDDVD) [ 17.5 GB ] Тёмный мир: Равновесие [2013 фентези Blu-Ray Remux [GER Transfer] () Ворон Скачать
1 | 0
Наши сериалы [ 7.73 GB ] Тёмный мир: Равновесие / Сезон: 1 / Серия 12-12) [2013 Россия SATRip] Ворон Скачать
1 | 0
Наши фильмы (DVD фильмы) [ 4.28 GB ] Тёмный мир: Равновесие [2013 DVD5] R5 voovaz Скачать
1 | 0
Наши фильмы (HD, WEB-DL 720p, 1080p) [ 3.02 GB ] Тёмный мир: Равновесие [2013 Россия WEB-DL 720p] Messa-fan Скачать
1 | 0
Трейлеры и дополнительные материалы к фильмам [ 119 MB ] Тёмный мир: Равновесие [2013 фентезиHDTVRip 1080p] Ворон Скачать
1 | 0

28-11-2019 20:33  

Отключить всю рекламу на сайте

05-01-2014 17:21 Тёмный мир: Равновесие Скачать торрент  

Все-таки битрейт маловат и картинка замылена. Взял бы за правило как на клабе такое не выкладывать.
Ну а так все равно спасибо за труды.piratbit.pw



05-01-2014 17:27 Тёмный мир: Равновесие Скачать торрент  

IntelMan писал(а):

Все-таки битрейт маловат и картинка замылена. Взял бы за правило как на клабе такое не выкладывать.

Для WEB-DL это норма, и лучшего не будет в данном качестве.Не выкладывать это не правильно, так как пока выйдет лучшее качество народ уже посмотрит и качать будет не здесь, а этого нельзя допустить.Так что тут должно быть все, что не нарушает правил и требований нашего ресурса.
Запрет на размещение рипов ненадлежащего качества

Цитата:

*** Исключением являются WEB-DL рипы у которых зачастую меньше битрейт... Таким релизам будет присваиваться статус "временной" раздачи до появления более качественных BDRip'ов

piratbit.pw





Последний раз редактировалось: Ворон (2014-01-05 21:00), всего редактировалось 1 раз

05-01-2014 21:00 Тёмный мир: Равновесие Скачать торрент  

смотрите парни смотритее кто любит очередное россиийское д.. из унитазаpiratbit.pw



06-01-2014 12:55 Тёмный мир: Равновесие Скачать торрент  

В некоторых моментах откровенно ржал,наши всё учатся снимать фэнтези.... да не научатся)piratbit.pw



    Дорогой пользователь! Огромная просьба, поблагодарите релизера, оцените раздачу и оставьте свои комментарий, если Вы скачали Тёмный мир: Равновесие через торрент бесплатно! Внесите свою лепту в развитие PiratBit!
    Комментировать посты могут только пользователи прошедшие не сложную регистрацию
    Показать сообщения:    

    Тёмный мир: Равновесие через торрент
    Скачать бесплатно Тёмный мир: Равновесие
    Тёмный мир: Равновесие скачать торрент
    Тёмный мир: Равновесие смотреть онлайн
    Cкачать фильм Тёмный мир: Равновесие бесплатно
    Тёмный мир: Равновесие скачать торрент в хорошем качестве
    Тёмный мир: Равновесие смотреть онлайн бесплатно в хорошем качестве


    Вы не можете начинать темы
    Вы не можете отвечать на сообщения
    Вы не можете редактировать свои сообщения
    Вы не можете удалять свои сообщения
    Вы не можете голосовать в опросах
    Вы не можете прикреплять файлы к сообщениям
    Вы можете скачивать файлы