Marvel's Avengers Deluxe Edition (супер цена) 159р. Внимание количество ограничено!!!

2 сезон

iTunes

iTunes

1

iTunes

iTunes

iTunes

WEBRip

iTunes

30
pack

Новость дня

ВАЖНО

!!Акция!!

Alien_RageХит недели

RePack

Horizon Zero Dawn

ИГРА 18+

pack

RePack

jed

!!Акция!!

Alien_Rage

RePack

fifa19

RePack

Assassins Creed: Odyssey

RePack

NEED FOR SPEED™ PAYBACK

4 сезон

9 сезон

Бесстыжие 9 сезон

Все сериалы

все сериалы на PB.wtf

RePack

FAR CRY 5
  

Одноклассники.ru: НаCLICKай удачу (Павел Худяков) [2013 г., Мелодрама, Комедия, BDRip 1080p, Лицензия] от R.G. PiratFilms piratbit.pw

Одноклассники.ru: НаCLICKай удачу через торрент piratbit.pw

Размер: 7.3 GB | Добавлен: 6 лет 7 мес. назад | Торрент скачан:217 раз
Скачать  

12-02-2014 03:32 Одноклассники.ru: НаCLICKай удачу Скачать торрент  

Одноклассники.ru: НаCLICKай удачу


Год выпуска: 2013
Страна: Россия
Жанр: Мелодрама, Комедия
Перевод: Не требуется

Продолжительность: 01:43:58
Режиссер: Павел Худяков
В ролях: Пётр Фёдоров, Фёдор Бондарчук, Корнелия Поляк, Сергей Друзьяк, Тимати, Снуп Догг, Сергей Никоненко, Александр Ревва, Ольга Тумайкина, Семён Стругачев, Никита Панфилов, Михаил Евланов


Круто, когда есть кнопка, на которую жмешь, и все становится по-твоему! Именно такая попала в руки молодому креативщику и тотальному неудачнику Леше. Теперь у него высокооплачиваемая работа, дорогая машина, стильный гардероб и, конечно, идеальная девушка. Достаточно одного клика! Просто надо знать, куда жать!

Качество: BDRip 1080p / Blu-Ray (1080p)
Формат: MKV
Видео кодек: AVC
Аудио кодек: AC3
Видео: AVC at 9600 Кбит/сек 1920 x 816 (2.353) at 24.000 fps
Аудио: AC-3 at 640 Кбит/сек 6 каналов, 48,0 КГц

Релиз группа: R.G. PiratFilms Автор рипа: XLASER

Код:

Формат                                   : Matroska
Версия формата                           : Version 2
Размер файла                             : 7,30 Гбайт
Продолжительность                        : 1 ч. 43 м.
Общий поток                              : 10,0 Мбит/сек
Программа кодирования                    : XviD4PSP 6.0 / 54.29.105
Библиотека кодирования                   : XviD4PSP 6.0 / 54.29.105

Видео
Идентификатор                            : 1
Формат                                   : AVC
Формат/Информация                        : Advanced Video Codec
Профиль формата                          : High@L5.0
Параметр CABAC формата                   : Да
Параметр ReFrames формата                : 3 кадра
Идентификатор кодека                     : V_MPEG4/ISO/AVC
Продолжительность                        : 1 ч. 43 м.
Битрейт                                  : 9600 Кбит/сек
Ширина                                   : 1920 пикселей
Высота                                   : 816 пикселей
Соотношение сторон                       : 2,35:1
Режим частоты кадров                     : Постоянный
Частота кадров                           : 24,000 кадра/сек
Цветовое пространство                    : YUV
Субдискретизация насыщенности            : 4:2:0
Битовая глубина                          : 8 бит
Тип развёртки                            : Прогрессивная
Бит/(Пиксели*Кадры)                      : 0.255
Размер потока                            : 6,69 Гбайт (92%)
Библиотека кодирования                   : x264 core 128 r2216M 198a7ea
Настройки программы                      : cabac=1 / ref=3 / deblock=1:-2:-1 / analyse=0x3:0x133 / me=hex / subme=7 / psy=1 / psy_rd=1.00:0.15 / mixed_ref=1 / me_range=16 / chroma_me=1 / trellis=1 / 8x8dct=1 / cqm=0 / deadzone=21,11 / fast_pskip=1 / chroma_qp_offset=-3 / threads=3 / lookahead_threads=1 / sliced_threads=0 / nr=0 / decimate=1 / interlaced=0 / bluray_compat=0 / constrained_intra=0 / bframes=3 / b_pyramid=1 / b_adapt=2 / b_bias=0 / direct=3 / weightb=1 / open_gop=0 / weightp=2 / keyint=240 / keyint_min=24 / scenecut=40 / intra_refresh=0 / rc_lookahead=40 / rc=abr / mbtree=1 / bitrate=9600 / ratetol=1.0 / qcomp=0.60 / qpmin=10 / qpmax=51 / qpstep=4 / ip_ratio=1.40 / aq=1:1.00
Default                                  : Да
Forced                                   : Нет

Аудио
Идентификатор                            : 2
Формат                                   : AC-3
Формат/Информация                        : Audio Coding 3
Расширение режима                        : CM (complete main)
Параметр Endianness формата              : Big
Идентификатор кодека                     : A_AC3
Продолжительность                        : 1 ч. 43 м.
Вид битрейта                             : Постоянный
Битрейт                                  : 640 Кбит/сек
Каналы                                   : 6 каналов
Расположение каналов                     : Front: L C R, Side: L R, LFE
Частота                                  : 48,0 КГц
Битовая глубина                          : 16 бит
Метод сжатия                             : С потерями
Задержка видео                           : 67 мс.
Размер потока                            : 476 Мбайт (6%)
Язык                                     : Russian
Default                                  : Да
Forced                                   : Нет

скриншот   скриншот   скриншот   скриншот   скриншот  
piratbit.pw



Скачать Одноклассники.ru: НаCLICKай удачу через торрент http://pic.kartinco.top/images/6/5obb6.jpg Скачать фильм Одноклассники.ru: НаCLICKай удачу через торрент бесплантно в хорошем качестве В ролях: Пётр Фёдоров, Фёдор Бондарчук, Корнелия Поляк, Сергей Друзьяк, Тимати, Снуп Догг, Сергей Никоненко, Александр Ревва, Ольга ... 9 10 12
Info! Золотая раздача, скачанное не засчитывается.
Торрент: Зарегистрирован [2014-02-12 03:32] · скачан: 217 раз
Статус: √ проверено
Размер: 7.3 GB
Как cкачать? Как скачать Одноклассники.ru: НаCLICKай удачу через торрент | qTorrent

% Раздел Тема Автор DL S | L
Наши фильмы (HD, WEB-DL 720p, 1080p) [ 4.16 GB ] Одноклассники.ru: НаCLICKай удачу [2013 Мело BDRip 720p ] от R.G. PiratFilms XLASER Скачать
1 | 0

28-11-2019 20:33  

Отключить всю рекламу на сайте

    Дорогой пользователь! Огромная просьба, поблагодарите релизера, оцените раздачу и оставьте свои комментарий, если Вы скачали Одноклассники.ru: НаCLICKай удачу через торрент бесплатно! Внесите свою лепту в развитие PiratBit!
    Комментировать посты могут только пользователи прошедшие не сложную регистрацию
    Показать сообщения:    

    Одноклассники.ru: НаCLICKай удачу через торрент
    Скачать бесплатно Одноклассники.ru: НаCLICKай удачу
    Одноклассники.ru: НаCLICKай удачу скачать торрент
    Одноклассники.ru: НаCLICKай удачу смотреть онлайн
    Cкачать фильм Одноклассники.ru: НаCLICKай удачу бесплатно
    Одноклассники.ru: НаCLICKай удачу скачать торрент в хорошем качестве
    Одноклассники.ru: НаCLICKай удачу смотреть онлайн бесплатно в хорошем качестве


    Вы не можете начинать темы
    Вы не можете отвечать на сообщения
    Вы не можете редактировать свои сообщения
    Вы не можете удалять свои сообщения
    Вы не можете голосовать в опросах
    Вы не можете прикреплять файлы к сообщениям
    Вы можете скачивать файлы