1 сезон

1 сезон

iTunes

1

КиноПоиск HD

Кинопоиск HD

iTunes

13

1 сезон

RePack

30

Ultimate

ВАЖНО

ИГРА 18+

pack

RePack

MK11
pack

Легкие деньги

RePack

jed

RePack

fifa19

RePack

RDR2

RePack

NEED FOR SPEED™ PAYBACK

4 сезон

9 сезон

Бесстыжие 9 сезон

Все сериалы

все сериалы на PB.wtf

RePack

FAR CRY 5
  
Magnet ссылка

Станция «Фрутвейл» / Fruitvale Station (Райан Куглер) [2013 г., драма, биография, BDRip, Авторский одноголосый] piratbit.pw

Станция «Фрутвейл» через торрент piratbit.pw

Размер: 2.19 GB | Добавлен: 7 лет 2 мес. назад | Торрент скачан:153 раза
Скачать  

29-01-2014 17:42 Станция «Фрутвейл» Скачать торрент  

Станция «Фрутвейл» / Fruitvale Station
Год выпуска: 2013
Страна: США / Forest Whitaker's Significant Productions, OG Project
Жанр: драма, биография,
Продолжительность: 01:25:01
Перевод: Авторский одноголосый (Сергей Бельчиков)

Режиссер: Райан Куглер



В ролях: Майкл Б. Джордан, Мелони Диаз, Кевин Дюран, Октавия Спенсер, Чад Майкл Мюррэй, Ана О’Райли, Ариана Нил, Кинэн Куглер, Трестин Джордж, Джои Оглсби,

Описание: Оскар Грант был обычным жизнерадостным парнем двадцати двух лет от роду. Он обожал свою дочь, был примерным сыном, изменял, но смог помириться с женой, ещё он любил потрепаться с друзьями во дворе своего родного района…

Качество: BDRip
Формат: AVI
Видео кодек: XviD
Аудио кодек: AC3
Видео: 720x400 (1.80:1), 23.976 fps, XviD MPEG-4 ~3227 kbps avg, 0.47 bit/pixel
Аудио: 48 kHz, AC3 Dolby Digital, 3/2 (L,C,R,l,r) + LFE ch, ~448 kbps

Релиз от:
скриншот   скриншот   скриншот   скриншот   скриншот   скриншот   скриншот   скриншот   скриншот   скриншот  

Общее
Полное имя : G:киноFruitvale.Station.2013.Piratbit.net.BDRip.avi
Формат : AVI
Формат/Информация : Audio Video Interleave
Профиль формата : OpenDML
Размер файла : 2,19 Гбайт
Продолжительность : 1 ч. 25 м.
Общий поток : 3682 Кбит/сек
Название фильма : Fruitvale.Station.2013.Piratbit.net.BDRip.avi
Режиссёр : Rip by coc900
Программа кодирования : VirtualDubMod 1.5.10.3 | www.virtualdub-fr.org || (build 2550/release)
Правообладатель : Piratbit.net

Видео
Идентификатор : 0
Формат : MPEG-4 Visual
Профиль формата : Advanced Simple@L5
Параметр BVOP формата : 2
Параметр QPel формата : Нет
Параметр GMC формата : Без точки перехода
Параметр матрицы формата : Default (H.263)
Режим смешивания : Сжатый битовый поток
Идентификатор кодека : XVID
Идентификатор кодека/Подсказка : XviD
Продолжительность : 1 ч. 25 м.
Битрейт : 3222 Кбит/сек
Ширина : 720 пикс.
Высота : 400 пикс.
Соотношение сторон : 16:9
Частота кадров : 23,976 кадр/сек
Цветовое пространство : YUV
Подвыборка цветности : 4:2:0
Битовая глубина : 8 бит
Тип развёртки : Прогрессивная
Метод сжатия : С потерями
Бит/(Пиксели*Кадры) : 0.467
Размер потока : 1,91 Гбайт (88%)
Библиотека кодирования : XviD 1.2.1 (UTC 2008-12-04)

Аудио
Идентификатор : 1
Формат : AC-3
Формат/Информация : Audio Coding 3
Расширение режима : CM (complete main)
Идентификатор кодека : 2000
Продолжительность : 1 ч. 25 м.
Вид битрейта : Постоянный
Битрейт : 448 Кбит/сек
Канал(ы) : 6 канала(ов)
Расположение каналов : Front: L C R, Side: L R, LFE
Частота : 48,0 КГц
Битовая глубина : 16 бит
Метод сжатия : С потерями
Размер потока : 272 Мбайт (12%)
Выравнивание : Разделение по промежуткам
Продолжительность промежутка : 42 мс. (1,00 видеокадр)
Время предзагрузки промежутка : 500 ms

piratbit.pw



Скачать Станция «Фрутвейл» через торрент https://pic.kartinco.top/images/6/eomjt.jpg Скачать фильм Станция «Фрутвейл» через торрент бесплантно в хорошем качестве Описание: Оскар Грант был обычным жизнерадостным парнем двадцати двух лет от роду. Он обожал свою дочь, был примерным сыном, изменял, но ... 9.5 10 4
Info! Золотая раздача, скачанное не засчитывается.
Торрент: Зарегистрирован [2014-01-29 17:42] · скачан: 153 раз
Статус: √ проверено
Размер: 2.19 GB
Как cкачать? Как скачать Станция «Фрутвейл» через торрент | UTorrent

% Раздел Тема Автор DL S | L
Фильмы (Blu-ray, BD-Remux, HDDVD) [ 19.87 GB ] Станция «Фрутвейл» / Fruitvale Station [2013 биография BD Remux] AVO [Сергей Бельчиков] + Original Messa-fan Скачать
1 | 0
Фильмы [HD 720p, 1080p] (Хороший звук DUB, MVO) [ 7.79 GB ] Станция «Фрутвейл» / Fruitvale Station [2013 биография BDRip 720p] AVO [Сергей Бельчиков] + Original Messa-fan Скачать
1 | 0

28-11-2019 20:33  

Отключить всю рекламу на сайте

29-01-2014 18:21 Станция «Фрутвейл» Скачать торрент  

Код:

Озвучка осуществлена за личные средства [b]markinscor[/b] и [b]13napas[/b]

piratbit.pw



    Дорогой пользователь! Огромная просьба, поблагодарите релизера, оцените раздачу и оставьте свои комментарий, если Вы скачали Станция «Фрутвейл» через торрент бесплатно! Внесите свою лепту в развитие PiratBit!
    Комментировать посты могут только пользователи прошедшие не сложную регистрацию
    Показать сообщения:    

    Станция «Фрутвейл» через торрент
    Скачать бесплатно Станция «Фрутвейл»
    Станция «Фрутвейл» скачать торрент
    Станция «Фрутвейл» смотреть онлайн
    Cкачать фильм Станция «Фрутвейл» бесплатно
    Станция «Фрутвейл» скачать торрент в хорошем качестве
    Станция «Фрутвейл» смотреть онлайн бесплатно в хорошем качестве


    Вы не можете начинать темы
    Вы не можете отвечать на сообщения
    Вы не можете редактировать свои сообщения
    Вы не можете удалять свои сообщения
    Вы не можете голосовать в опросах
    Вы не можете прикреплять файлы к сообщениям
    Вы можете скачивать файлы