Marvel's Avengers Deluxe Edition (супер цена) 159р. Внимание количество ограничено!!!

2 сезон

iTunes

iTunes

1

iTunes

iTunes

iTunes

WEBRip

iTunes

30
pack

Новость дня

ВАЖНО

!!Акция!!

Alien_RageХит недели

RePack

Horizon Zero Dawn

ИГРА 18+

pack

RePack

jed

!!Акция!!

Alien_Rage

RePack

fifa19

RePack

Assassins Creed: Odyssey

RePack

NEED FOR SPEED™ PAYBACK

4 сезон

9 сезон

Бесстыжие 9 сезон

Все сериалы

все сериалы на PB.wtf

RePack

FAR CRY 5
  

Гагарин. Первый в космосе (Павел Пархоменко) [2013 г., драма, биография, история, BDRip 720p, лицензия] piratbit.pw

Гагарин. Первый в космосе через торрент piratbit.pw

Размер: 5.23 GB | Добавлен: 6 лет 7 мес. назад | Торрент скачан:197 раз
Скачать  

19-07-2013 22:58 Гагарин. Первый в космосе Скачать торрент  

Гагарин. Первый в космосе
Год выпуска: 2013
Страна: Россия
Жанр: драма, биография, история,
Продолжительность: 01:48:11
Тип релиза: Лицензия
Субтитры: Нет

Режиссер: Павел Пархоменко
Продюссер: Олег Капанец, Дмитрий Мурин, Энтони Уоллер
Сценарий: Олег Капанец, Андрей Дмитриев

Бюджет: $1 115 400
Премьера в мире: 6 июня 2013

IMDB 6.60 (128)


В ролях: Ярослав Жалнин, Михаил Филиппов, Владимир Стеклов, Ольга Иванова, Вадим Мичман, Даниил Воробьев, Надежда Маркина, Виктор Проскурин, Инга Стрелкова-Оболдина, Валерий Афанасьев,

Описание: Фильм посвящен первым шагам человечества на пути освоения космоса и непосредственно судьбе первого космонавта Ю. А. Гагарина. Основной лейтмотив — борьба за право быть первым: соревнование в первом отряде космонавтов; конкуренция технологий в ракетостроении; противостояние сверхдержав — СССР и США.В первый отряд космонавтов отбирали из трёх тысяч летчиков-истребителей по всей стране. В легендарную двадцатку попали лучшие из лучших. Кто из них полетит первым, не знал никто. На этом пути пришлось бороться не только с земным притяжением...

Качество: BDRip 720p
Формат: MKV
Видео кодек: AVC
Аудио кодек: DTS
Видео: MPEG-4 AVC, 5420 Кбит/с, 1280х720(16:9), 25.000 кадр/с
Аудио#1: Русский( DTS, 6 ch, 1509 Кбит/с, 48.0 КГц, 24 бит)





Общее
Уникальный идентификатор : 170223489829061063701696749642843707499 (0x800FDA046C44CE8D8317E463DA48586B)
Полное имя : E:Gagarin.Pervyi.v.Kosmose.2013.O.BDRip.720p.mkv
Формат : Matroska
Версия формата : Version 2
Размер файла : 5,23 Гбайт
Продолжительность : 1 ч. 48 м.
Общий поток : 6928 Кбит/сек
Дата кодирования : UTC 2013-07-19 16:49:32
Программа кодирования : mkvmerge v5.7.0 ('The Whirlwind') built on Jul 8 2012 20:08:51
Библиотека кодирования : libebml v1.2.3 + libmatroska v1.3.0

Видео
Идентификатор : 1
Формат : AVC
Формат/Информация : Advanced Video Codec
Профиль формата : High@L4.1
Параметр CABAC формата : Да
Параметр ReFrames формата : 4 кадра
Режим смешивания : Header stripping
Идентификатор кодека : V_MPEG4/ISO/AVC
Продолжительность : 1 ч. 48 м.
Битрейт : 5420 Кбит/сек
Ширина : 1280 пикселей
Высота : 720 пикселей
Соотношение сторон : 16:9
Режим частоты кадров : Постоянный
Частота кадров : 25,000 кадров/сек
Цветовое пространство : YUV
Субдискретизация насыщенности : 4:2:0
Битовая глубина : 8 бит
Тип развёртки : Прогрессивная
Бит/(Пиксели*Кадры) : 0.235
Размер потока : 3,99 Гбайт (76%)
Библиотека кодирования : x264 core 125 r2200 999b753
Настройки программы : cabac=1 / ref=1 / deblock=1:0:0 / analyse=0x3:0x113 / me=hex / subme=2 / psy=1 / psy_rd=1.00:0.00 / mixed_ref=0 / me_range=16 / chroma_me=1 / trellis=0 / 8x8dct=1 / cqm=0 / deadzone=21,11 / fast_pskip=1 / chroma_qp_offset=0 / threads=12 / lookahead_threads=2 / sliced_threads=0 / nr=0 / decimate=1 / interlaced=0 / bluray_compat=0 / constrained_intra=0 / bframes=3 / b_pyramid=2 / b_adapt=1 / b_bias=0 / direct=1 / weightb=1 / open_gop=0 / weightp=1 / keyint=250 / keyint_min=25 / scenecut=40 / intra_refresh=0 / rc_lookahead=10 / rc=2pass / mbtree=1 / bitrate=5420 / ratetol=1.0 / qcomp=0.60 / qpmin=0 / qpmax=69 / qpstep=4 / cplxblur=20.0 / qblur=0.5 / ip_ratio=1.40 / aq=1:1.00
Язык : English
Default : Да
Forced : Нет

Аудио
Идентификатор : 2
Формат : DTS
Формат/Информация : Digital Theater Systems
Режим : 16
Параметр Endianness формата : Big
Режим смешивания : Header stripping
Идентификатор кодека : A_DTS
Продолжительность : 1 ч. 48 м.
Вид битрейта : Постоянный
Битрейт : 1509 Кбит/сек
Каналы : 6 каналов
Расположение каналов : Front: L C R, Side: L R, LFE
Частота : 48,0 КГц
Битовая глубина : 24 бит
Метод сжатия : С потерями
Размер потока : 1,14 Гбайт (22%)
Default : Да
Forced : Нет


Гагарин. Первый в космосе скачать торрент


piratbit.pw



Скачать Гагарин. Первый в космосе через торрент http://pic.kartinco.top/images/3/fcui8bgv9a.jpg Скачать фильм Гагарин. Первый в космосе через торрент бесплантно в хорошем качестве Описание: Фильм посвящен первым шагам человечества на пути освоения космоса и непосредственно судьбе первого космонавта Ю. А. Гагарина. ... 8.7 10 31
Info! Золотая раздача, скачанное не засчитывается.
Торрент: Зарегистрирован [2014-01-28 10:16] · скачан: 197 раз
Статус: √ проверено
Размер: 5.23 GB
Как cкачать? Как скачать Гагарин. Первый в космосе через торрент | qTorrent

% Раздел Тема Автор DL S | L
Наши фильмы (HD, WEB-DL 720p, 1080p) [ 13.26 GB ] Гагарин. Первый в космосе [2013 биография история BDRip 1080p] -Lexx- Скачать
1 | 0
Наши новые фильмы 2013 [ 2.16 GB ] Гагарин. Первый в космосе [2013 История Биография BDRip] DJKOCMOC Скачать
1 | 0
Наши новые фильмы 2013 [ 2.06 GB ] Гагарин. Первый в космосе [2013 биография история BDRip ] coc900 Скачать
1 | 0
Наши новые фильмы 2013 [ 2.19 GB ] Гагарин. Первый в космосе [2013 биография история BDRip-AVC ] AlexG77 Скачать
1 | 0
Наши новые фильмы 2013 [ 1.46 GB ] Гагарин. Первый в космосе [2013 биография история BDRip ][ лицензия ] Ворон Скачать
1 | 0
Наши новые фильмы 2013 [ 743 MB ] Гагарин. Первый в космосе [2013 биография история BDRip-AVC] sokol_ok Скачать
2 | 0
Наши новые фильмы 2013 [ 1.45 GB ] Гагарин. Первый в космосе [2013 биография BDRip-AVC] sokol_ok Скачать
2 | 0

28-11-2019 20:33  

Отключить всю рекламу на сайте

    Дорогой пользователь! Огромная просьба, поблагодарите релизера, оцените раздачу и оставьте свои комментарий, если Вы скачали Гагарин. Первый в космосе через торрент бесплатно! Внесите свою лепту в развитие PiratBit!
    Комментировать посты могут только пользователи прошедшие не сложную регистрацию
    Показать сообщения:    

    Гагарин. Первый в космосе через торрент
    Скачать бесплатно Гагарин. Первый в космосе
    Гагарин. Первый в космосе скачать торрент
    Гагарин. Первый в космосе смотреть онлайн
    Cкачать фильм Гагарин. Первый в космосе бесплатно
    Гагарин. Первый в космосе скачать торрент в хорошем качестве
    Гагарин. Первый в космосе смотреть онлайн бесплатно в хорошем качестве


    Вы не можете начинать темы
    Вы не можете отвечать на сообщения
    Вы не можете редактировать свои сообщения
    Вы не можете удалять свои сообщения
    Вы не можете голосовать в опросах
    Вы не можете прикреплять файлы к сообщениям
    Вы можете скачивать файлы