Ссылка на приватное зеркало нашего сайта всего за 1$. Внимание количество ограничено!!!

2 сезон

iTunes

iTunes

1

iTunes

iTunes

iTunes

WEBRip

iTunes

30
pack

Вам бонус

ВАЖНО

!!Акция!!

Alien_RageХит недели

RePack

Horizon Zero Dawn

ИГРА 18+

pack

RePack

jed

!!Акция!!

Alien_Rage

RePack

fifa19

RePack

Assassins Creed: Odyssey

RePack

NEED FOR SPEED™ PAYBACK

4 сезон

9 сезон

Бесстыжие 9 сезон

Все сериалы

все сериалы на PB.wtf

RePack

FAR CRY 5
  

Два капитана (Евгений Карелов) [1976 г., мелодрама, приключения, DVDRip] piratbit.pw

Два капитана через торрент piratbit.pw

Размер: 6.53 GB | Добавлен: 6 лет 7 мес. назад | Торрент скачан:13 раз
Скачать  

27-01-2014 11:15 Два капитана Скачать торрент  

Два капитана
Год выпуска: 1976
Страна: СССР
Жанр: мелодрама, приключения,
Продолжительность: 01:06:23 + 01:12:52 + 01:23:46 + 01:11:07 + 01:14:22 + 01:04:33

Режиссер: Евгений Карелов
Сценарий: Евгений Карелов, Вениамин Каверин, Владимир Савин



В ролях:
Борис Токарев — Саня Григорьев
Сергей Кудрявцев — Саня в детстве
Елена Прудникова — Катя Татаринова
Лена Лобкина — Катя в детстве
Юрий Богатырёв — Михаил Ромашов (Ромашка)
Алёша Сенчев — Ромашов в детстве
Наталья Егорова — Саша Григорьева, сестра Сани
Ира Клименко — Саша Григорьева в детстве
Николай Гриценко — Николай Антонович Татаринов
Георгий Куликов — Иван Павлович Кораблёв
Ирина Печерникова — Мария Васильевна Татаринова
Владимир Заманский — доктор Иван Иванович
Зинаида Кириенко — Аксинья Фёдоровна, мать Сани
Александр Лукьянов — Иван Григорьев, отец Сани
Вера Кузнецова — Нина Капитоновна
Александр Вигдоров — Валька Жуков
Юрий Кузьменков — Петька Сковородников
Саша Пузанков — Петька Сковородников в детстве
Евгений Гуров — чиновник юстиции
Чеслав Сушкевич — продавец часов
Михаил Пуговкин — Гаер Кулий
Александр Вокач — Николай Иванович фон Вышимирский
Данута Столярская — жена начальника училища
Пётр Любешкин — Пётр Владимирович Сковородников
Любовь Соколова — тётя Даша Сковородникова
Михаил Погоржельский — Владимир Юрьевич Ванин
Борислав Брондуков — Голубь, жулик
Анатолий Яббаров — убийца на берегу
Наталья Крачковская — продавщица пирожков на катке
Иван Власов — капитан Татаринов
Владимир Маренков — майор Ильин
Юлия Цоглин — медсестра на фронте
Лариса Виккел — Кирен

Описание: В начале века в провинциальном городке десятилетний Саня Григорьев находит в речке сумку с письмами участников какой-то пропавшей экспедиции. По удивительному стечению обстоятельств с поисками ее следов будет связана вся его дальнейшая жизнь, и роковую роль сыграет в ней тот, по чьей вине эта экспедиция погибла…

Качество: DVDRip
Формат: AVI
Видео кодек: DivX
Аудио кодек: AC3
Видео: 688x512, (4:3), 25,000 кадров/сек, 1701 Кбит/сек, 0.193 бит/пикс
Аудио#1: 48,0 КГц, АС3, 1 канал, 448 Кбит/сек
скриншот   скриншот   скриншот   скриншот   скриншот   скриншот  
Общее
Полное имя : D:загрузкиДва капитана DVDRip1 серия Старые письма.avi
Формат : AVI
Формат/Информация : Audio Video Interleave
Размер файла : 1,00 Гбайт
Продолжительность : 1 ч. 6 м.
Общий поток : 2158 Кбит/сек
Программа кодирования : VirtualDubModRus 1.5.10.2 (build 2542/release)
Библиотека кодирования : VirtualDubMod build 2542/release

Видео
Идентификатор : 0
Формат : MPEG-4 Visual
Параметр BVOP формата : 1
Параметр QPel формата : Нет
Параметр GMC формата : Без точки перехода
Параметр матрицы формата : Default (H.263)
Режим смешивания : Сжатый битовый поток
Идентификатор кодека : DX50
Идентификатор кодека/Подсказка : DivX 5
Продолжительность : 1 ч. 6 м.
Битрейт : 1701 Кбит/сек
Ширина : 688 пикселей
Высота : 512 пикселей
Соотношение сторон : 4:3
Частота кадров : 25,000 кадров/сек
Цветовое пространство : YUV
Субдискретизация насыщенности : 4:2:0
Битовая глубина : 8 бит
Тип развёртки : Прогрессивная
Метод сжатия : С потерями
Бит/(Пиксели*Кадры) : 0.193
Размер потока : 808 Мбайт (79%)
Библиотека кодирования : DivX 6.8.3-6.8.4 (UTC 2008-06-07)

Аудио
Идентификатор : 1
Формат : AC-3
Формат/Информация : Audio Coding 3
Расширение режима : CM (complete main)
Параметр Endianness формата : Big
Идентификатор кодека : 2000
Продолжительность : 1 ч. 6 м.
Вид битрейта : Постоянный
Битрейт : 448 Кбит/сек
Каналы : 1 канал
Расположение каналов : Front: C
Частота : 48,0 КГц
Битовая глубина : 16 бит
Метод сжатия : С потерями
Размер потока : 213 Мбайт (21%)
Выравнивание : Соединение по промежуткам
Продолжительность промежутка : 40 мс. (1,00 видеокадр)
Время предзагрузки промежутка : 512 мс.

Общее
Полное имя : D:загрузкиДва капитана DVDRip2 серия Татариновы.avi
Формат : AVI
Формат/Информация : Audio Video Interleave
Размер файла : 1,10 Гбайт
Продолжительность : 1 ч. 12 м.
Общий поток : 2158 Кбит/сек
Программа кодирования : VirtualDubModRus 1.5.10.2 (build 2542/release)
Библиотека кодирования : VirtualDubMod build 2542/release

Видео
Идентификатор : 0
Формат : MPEG-4 Visual
Параметр BVOP формата : 1
Параметр QPel формата : Нет
Параметр GMC формата : Без точки перехода
Параметр матрицы формата : Default (H.263)
Режим смешивания : Сжатый битовый поток
Идентификатор кодека : DX50
Идентификатор кодека/Подсказка : DivX 5
Продолжительность : 1 ч. 12 м.
Битрейт : 1700 Кбит/сек
Ширина : 688 пикселей
Высота : 512 пикселей
Соотношение сторон : 4:3
Частота кадров : 25,000 кадров/сек
Цветовое пространство : YUV
Субдискретизация насыщенности : 4:2:0
Битовая глубина : 8 бит
Тип развёртки : Прогрессивная
Метод сжатия : С потерями
Бит/(Пиксели*Кадры) : 0.193
Размер потока : 886 Мбайт (79%)
Библиотека кодирования : DivX 6.8.3-6.8.4 (UTC 2008-06-07)

Аудио
Идентификатор : 1
Формат : AC-3
Формат/Информация : Audio Coding 3
Расширение режима : CM (complete main)
Параметр Endianness формата : Big
Идентификатор кодека : 2000
Продолжительность : 1 ч. 12 м.
Вид битрейта : Постоянный
Битрейт : 448 Кбит/сек
Каналы : 1 канал
Расположение каналов : Front: C
Частота : 48,0 КГц
Битовая глубина : 16 бит
Метод сжатия : С потерями
Размер потока : 234 Мбайт (21%)
Выравнивание : Соединение по промежуткам
Продолжительность промежутка : 40 мс. (1,00 видеокадр)
Время предзагрузки промежутка : 512 мс.

Общее
Полное имя : D:загрузкиДва капитана DVDRip3 серия Катин отец.avi
Формат : AVI
Формат/Информация : Audio Video Interleave
Размер файла : 1,26 Гбайт
Продолжительность : 1 ч. 23 м.
Общий поток : 2158 Кбит/сек
Программа кодирования : VirtualDubModRus 1.5.10.2 (build 2542/release)
Библиотека кодирования : VirtualDubMod build 2542/release

Видео
Идентификатор : 0
Формат : MPEG-4 Visual
Параметр BVOP формата : 1
Параметр QPel формата : Нет
Параметр GMC формата : Без точки перехода
Параметр матрицы формата : Default (H.263)
Режим смешивания : Сжатый битовый поток
Идентификатор кодека : DX50
Идентификатор кодека/Подсказка : DivX 5
Продолжительность : 1 ч. 23 м.
Битрейт : 1700 Кбит/сек
Ширина : 688 пикселей
Высота : 512 пикселей
Соотношение сторон : 4:3
Частота кадров : 25,000 кадров/сек
Цветовое пространство : YUV
Субдискретизация насыщенности : 4:2:0
Битовая глубина : 8 бит
Тип развёртки : Прогрессивная
Метод сжатия : С потерями
Бит/(Пиксели*Кадры) : 0.193
Размер потока : 1019 Мбайт (79%)
Библиотека кодирования : DivX 6.8.3-6.8.4 (UTC 2008-06-07)

Аудио
Идентификатор : 1
Формат : AC-3
Формат/Информация : Audio Coding 3
Расширение режима : CM (complete main)
Параметр Endianness формата : Big
Идентификатор кодека : 2000
Продолжительность : 1 ч. 23 м.
Вид битрейта : Постоянный
Битрейт : 448 Кбит/сек
Каналы : 1 канал
Расположение каналов : Front: C
Частота : 48,0 КГц
Битовая глубина : 16 бит
Метод сжатия : С потерями
Размер потока : 268 Мбайт (21%)
Выравнивание : Соединение по промежуткам
Продолжительность промежутка : 40 мс. (1,00 видеокадр)
Время предзагрузки промежутка : 512 мс.

Общее
Полное имя : D:загрузкиДва капитана DVDRip4 серия Дневник штурмана Климова.avi
Формат : AVI
Формат/Информация : Audio Video Interleave
Размер файла : 1,07 Гбайт
Продолжительность : 1 ч. 11 м.
Общий поток : 2158 Кбит/сек
Программа кодирования : VirtualDubModRus 1.5.10.2 (build 2542/release)
Библиотека кодирования : VirtualDubMod build 2542/release

Видео
Идентификатор : 0
Формат : MPEG-4 Visual
Параметр BVOP формата : 1
Параметр QPel формата : Нет
Параметр GMC формата : Без точки перехода
Параметр матрицы формата : Default (H.263)
Режим смешивания : Сжатый битовый поток
Идентификатор кодека : DX50
Идентификатор кодека/Подсказка : DivX 5
Продолжительность : 1 ч. 11 м.
Битрейт : 1701 Кбит/сек
Ширина : 688 пикселей
Высота : 512 пикселей
Соотношение сторон : 4:3
Частота кадров : 25,000 кадров/сек
Цветовое пространство : YUV
Субдискретизация насыщенности : 4:2:0
Битовая глубина : 8 бит
Тип развёртки : Прогрессивная
Метод сжатия : С потерями
Бит/(Пиксели*Кадры) : 0.193
Размер потока : 865 Мбайт (79%)
Библиотека кодирования : DivX 6.8.3-6.8.4 (UTC 2008-06-07)

Аудио
Идентификатор : 1
Формат : AC-3
Формат/Информация : Audio Coding 3
Расширение режима : CM (complete main)
Параметр Endianness формата : Big
Идентификатор кодека : 2000
Продолжительность : 1 ч. 11 м.
Вид битрейта : Постоянный
Битрейт : 448 Кбит/сек
Каналы : 1 канал
Расположение каналов : Front: C
Частота : 48,0 КГц
Битовая глубина : 16 бит
Метод сжатия : С потерями
Размер потока : 228 Мбайт (21%)
Выравнивание : Соединение по промежуткам
Продолжительность промежутка : 40 мс. (1,00 видеокадр)
Время предзагрузки промежутка : 512 мс.

Общее
Полное имя : D:загрузкиДва капитана DVDRip5 серия Бороться и искать.avi
Формат : AVI
Формат/Информация : Audio Video Interleave
Размер файла : 1,12 Гбайт
Продолжительность : 1 ч. 14 м.
Общий поток : 2158 Кбит/сек
Программа кодирования : VirtualDubModRus 1.5.10.2 (build 2542/release)
Библиотека кодирования : VirtualDubMod build 2542/release

Видео
Идентификатор : 0
Формат : MPEG-4 Visual
Параметр BVOP формата : 1
Параметр QPel формата : Нет
Параметр GMC формата : Без точки перехода
Параметр матрицы формата : Default (H.263)
Режим смешивания : Сжатый битовый поток
Идентификатор кодека : DX50
Идентификатор кодека/Подсказка : DivX 5
Продолжительность : 1 ч. 14 м.
Битрейт : 1700 Кбит/сек
Ширина : 688 пикселей
Высота : 512 пикселей
Соотношение сторон : 4:3
Частота кадров : 25,000 кадров/сек
Цветовое пространство : YUV
Субдискретизация насыщенности : 4:2:0
Битовая глубина : 8 бит
Тип развёртки : Прогрессивная
Метод сжатия : С потерями
Бит/(Пиксели*Кадры) : 0.193
Размер потока : 905 Мбайт (79%)
Библиотека кодирования : DivX 6.8.3-6.8.4 (UTC 2008-06-07)

Аудио
Идентификатор : 1
Формат : AC-3
Формат/Информация : Audio Coding 3
Расширение режима : CM (complete main)
Параметр Endianness формата : Big
Идентификатор кодека : 2000
Продолжительность : 1 ч. 14 м.
Вид битрейта : Постоянный
Битрейт : 448 Кбит/сек
Каналы : 1 канал
Расположение каналов : Front: C
Частота : 48,0 КГц
Битовая глубина : 16 бит
Метод сжатия : С потерями
Размер потока : 238 Мбайт (21%)
Выравнивание : Соединение по промежуткам
Продолжительность промежутка : 40 мс. (1,00 видеокадр)
Время предзагрузки промежутка : 512 мс.

Общее
Полное имя : D:загрузкиДва капитана DVDRip6 серия Найти и не сдаваться.avi
Формат : AVI
Формат/Информация : Audio Video Interleave
Размер файла : 997 Мбайт
Продолжительность : 1 ч. 4 м.
Общий поток : 2158 Кбит/сек
Программа кодирования : VirtualDubModRus 1.5.10.2 (build 2542/release)
Библиотека кодирования : VirtualDubMod build 2542/release

Видео
Идентификатор : 0
Формат : MPEG-4 Visual
Параметр BVOP формата : 1
Параметр QPel формата : Нет
Параметр GMC формата : Без точки перехода
Параметр матрицы формата : Default (H.263)
Режим смешивания : Сжатый битовый поток
Идентификатор кодека : DX50
Идентификатор кодека/Подсказка : DivX 5
Продолжительность : 1 ч. 4 м.
Битрейт : 1701 Кбит/сек
Ширина : 688 пикселей
Высота : 512 пикселей
Соотношение сторон : 4:3
Частота кадров : 25,000 кадров/сек
Цветовое пространство : YUV
Субдискретизация насыщенности : 4:2:0
Битовая глубина : 8 бит
Тип развёртки : Прогрессивная
Метод сжатия : С потерями
Бит/(Пиксели*Кадры) : 0.193
Размер потока : 785 Мбайт (79%)
Библиотека кодирования : DivX 6.8.3-6.8.4 (UTC 2008-06-07)

Аудио
Идентификатор : 1
Формат : AC-3
Формат/Информация : Audio Coding 3
Расширение режима : CM (complete main)
Параметр Endianness формата : Big
Идентификатор кодека : 2000
Продолжительность : 1 ч. 4 м.
Вид битрейта : Постоянный
Битрейт : 448 Кбит/сек
Каналы : 1 канал
Расположение каналов : Front: C
Частота : 48,0 КГц
Битовая глубина : 16 бит
Метод сжатия : С потерями
Размер потока : 207 Мбайт (21%)
Выравнивание : Соединение по промежуткам
Продолжительность промежутка : 40 мс. (1,00 видеокадр)
Время предзагрузки промежутка : 512 мс.

piratbit.pw



Скачать Два капитана через торрент http://pic.kartinco.top/images/6/uj8lf.jpg Скачать фильм Два капитана через торрент бесплантно в хорошем качестве Описание: В начале века в провинциальном городке десятилетний Саня Григорьев находит в речке сумку с письмами участников какой-то пропавшей ... 8.5 10 12
Info! Золотая раздача, скачанное не засчитывается.
Торрент: Зарегистрирован [2014-01-27 11:15] · скачан: 13 раз
Статус: √ проверено
Размер: 6.53 GB
Как cкачать? Как скачать Два капитана через торрент | qTorrent

% Раздел Тема Автор DL S | L
Приключения-путешествия [ 1.86 GB ] Каверин Вениамин - Два капитана [Князев Игорь Князева Наталия 2014 160 kbps MP3] Magnat Скачать
1 | 0

28-11-2019 20:33  

Отключить всю рекламу на сайте

    Дорогой пользователь! Огромная просьба, поблагодарите релизера, оцените раздачу и оставьте свои комментарий, если Вы скачали Два капитана через торрент бесплатно! Внесите свою лепту в развитие PiratBit!
    Комментировать посты могут только пользователи прошедшие не сложную регистрацию
    Показать сообщения:    

    Два капитана через торрент
    Скачать бесплатно Два капитана
    Два капитана скачать торрент
    Два капитана смотреть онлайн
    Cкачать фильм Два капитана бесплатно
    Два капитана скачать торрент в хорошем качестве
    Два капитана смотреть онлайн бесплатно в хорошем качестве


    Вы не можете начинать темы
    Вы не можете отвечать на сообщения
    Вы не можете редактировать свои сообщения
    Вы не можете удалять свои сообщения
    Вы не можете голосовать в опросах
    Вы не можете прикреплять файлы к сообщениям
    Вы можете скачивать файлы