1 сезон

1 сезон

iTunes

1

КиноПоиск HD

Кинопоиск HD

iTunes

13

1 сезон

RePack

30

Deluxe

ВАЖНО

ИГРА 18+

pack

RePack

MK11
pack

Легкие деньги

RePack

jed

RePack

fifa19

RePack

RDR2

RePack

NEED FOR SPEED™ PAYBACK

4 сезон

9 сезон

Бесстыжие 9 сезон

Все сериалы

все сериалы на PB.wtf

RePack

FAR CRY 5
  
Magnet ссылка

Арн: Объединенное королевство / Arn - Riket vid vagens slut (Петер Флинт) [2008, боевик, драма, мелодрама, приключения, военный, история, BDRip] [MVO] (Kravec) piratbit.pw

Арн: Объединенное королевство через торрент piratbit.pw

Размер: 1.46 GB | Добавлен: 7 лет 3 мес. назад | Торрент скачан:208 раз
Скачать  

26-01-2014 21:16 Арн: Объединенное королевство Скачать торрент  

Арн: Объединенное королевство / Arn - Riket vid vägens slut

Год выпуска: 2008
Страна: Германия, Дания, Швеция, Финляндия, Великобритания, Норвегия
Жанр: боевик, драма, мелодрама, приключения, военный, история
Продолжительность: 02:07:36
Перевод: Профессиональный (многоголосый, закадровый)[Kravec]
Русские субтитры: нет

Режиссер: Петер Флинт / Peter Flinth

В ролях: Йоаким Наттерквист, София Хелин, Стеллан Скарсгард, Биби Андерссон, Густаф Скарсгард, Юэль Киннаман, Фанни Рисберг, Андерс Баасмо Кристиансен, Якоб Седергрен, Николас Болтон, Милинд Соман

Описание: Второй фильм о вымышленном шведском рыцаре тамплиеров Арне Магнассоне. История его жизни развивается в Святой земле во времена Саладина, битвы при Хатине и других событий, связанных с тяжёлыми временами Иерусалимского королевства. После всех трудностей, сомнений и испытаний, Арн оставляет Иерусалим совсем другим человеком, возвращается в Швецию измученную феодальными распрями, к своей семье погрязшей в этих дрязгах и к любви своей юности, Сесилии, с которой они были разлучены 20 лет…



Качество: BDRip
Формат: AVI
Видео кодек: XviD
Аудио кодек: AC3
Видео: 720x304 (2.37:1), 24 fps, XviD build 65 ~1176 kbps avg, 0.22 bit/pixel
Аудио: 48 kHz, AC3 Dolby Digital, 3/2 (L,C,R,l,r) + LFE ch, ~448 kbps
General
Complete name : E:INTERNETArn.Riket.vid.vagens.slut.2008.BDRip.MVO.ALLFILMS.RG.avi
Format : AVI
Format/Info : Audio Video Interleave
File size : 1.46 GiB
Duration : 2h 7mn
Overall bit rate : 1 634 Kbps
Director : Last Boy Scout
Writing application : VirtualDubMod 1.5.10.3 | www.virtualdub-fr.org || (build 2550/release)
Copyright : rutracker.org 11.06.2012
Comment : BDRip MVO (Kravec)

Video
ID : 0
Format : MPEG-4 Visual
Format profile : Advanced Simple@L5
Format settings, BVOP : 1
Format settings, QPel : No
Format settings, GMC : No warppoints
Format settings, Matrix : Custom
Codec ID : XVID
Codec ID/Hint : XviD
Duration : 2h 7mn
Bit rate : 1 176 Kbps
Width : 720 pixels
Height : 304 pixels
Display aspect ratio : 2.35:1
Frame rate : 24.000 fps
Color space : YUV
Chroma subsampling : 4:2:0
Bit depth : 8 bits
Scan type : Progressive
Compression mode : Lossy
Bits/(Pixel*Frame) : 0.224
Stream size : 1.05 GiB (72%)
Writing library : XviD 65

Audio
ID : 1
Format : AC-3
Format/Info : Audio Coding 3
Mode extension : CM (complete main)
Codec ID : 2000
Duration : 2h 7mn
Bit rate mode : Constant
Bit rate : 448 Kbps
Channel(s) : 6 channels
Channel positions : Front: L C R, Side: L R, LFE
Sampling rate : 48.0 KHz
Bit depth : 16 bits
Compression mode : Lossy
Stream size : 409 MiB (27%)
Alignment : Split accross interleaves
Interleave, duration : 42 ms (1.00 video frame)
Interleave, preload duration : 500 ms
piratbit.pw



Скачать Арн: Объединенное королевство через торрент http://i59.fastpic.ru/big/2014/0127/63/2a441e9ffde42daed9f05d0ae57d5163.jpg Скачать фильм Арн: Объединенное королевство через торрент бесплантно в хорошем качестве Описание: Второй фильм о вымышленном шведском рыцаре тамплиеров Арне Магнассоне. История его жизни развивается в Святой земле во времена ... 10 10 4
Info! Золотая раздача, скачанное не засчитывается.
Торрент: Зарегистрирован [2014-01-26 21:16] · скачан: 208 раз
Статус: √ проверено
Размер: 1.46 GB
Как cкачать? Как скачать Арн: Объединенное королевство через торрент | UTorrent

28-11-2019 20:33  

Отключить всю рекламу на сайте

    Дорогой пользователь! Огромная просьба, поблагодарите релизера, оцените раздачу и оставьте свои комментарий, если Вы скачали Арн: Объединенное королевство через торрент бесплатно! Внесите свою лепту в развитие PiratBit!
    Комментировать посты могут только пользователи прошедшие не сложную регистрацию
    Показать сообщения:    

    Арн: Объединенное королевство через торрент
    Скачать бесплатно Арн: Объединенное королевство
    Арн: Объединенное королевство скачать торрент
    Арн: Объединенное королевство смотреть онлайн
    Cкачать фильм Арн: Объединенное королевство бесплатно
    Арн: Объединенное королевство скачать торрент в хорошем качестве
    Арн: Объединенное королевство смотреть онлайн бесплатно в хорошем качестве


    Вы не можете начинать темы
    Вы не можете отвечать на сообщения
    Вы не можете редактировать свои сообщения
    Вы не можете удалять свои сообщения
    Вы не можете голосовать в опросах
    Вы не можете прикреплять файлы к сообщениям
    Вы можете скачивать файлы