1 сезон

3 сезон

iTunes

1

iTunes

DUB Netflix

iTunes

13

1 сезон

RePack

30

Deluxe

pack

Легкие деньги

ВАЖНО

ИГРА 18+

pack

RePack

MK11

RePack

jed

RePack

fifa19

RePack

RDR2

RePack

NEED FOR SPEED™ PAYBACK

4 сезон

9 сезон

Бесстыжие 9 сезон

Все сериалы

все сериалы на PB.wtf

RePack

FAR CRY 5

Anonymous, доброй ночи, мы не успеваем до 1 числа собрать деньги на оплату серверов, помогите нам пожалуйста в это трудное время. В качестве благодарности мы отключим Вам всю рекламу на сайте (укажите свой ник в строку Ваше имя)!

×
  
Magnet ссылка

Морозилка / Freezer (Микаэл Саломон / Mikael Salomon) [ 2014 , США , боевик, триллер , HDRip ] VO piratbit.pw

Морозилка через торрент piratbit.pw

Размер: 1.37 GB | Добавлен: 7 лет 4 мес. назад | Торрент скачан:867 раз
Скачать  

25-01-2014 20:30 Морозилка Скачать торрент  

Морозилка / FreezerГод выпуска: 2014
Страна: США
Жанр: боевик, триллер
Продолжительность: 01:22:10
Перевод: Любительский (одноголосый)den904
Субтитры: Нет
Режиссер: Микаэл Саломон / Mikael Salomon
В ролях: Дилан МакДермотт (Robert), Питер Фачинелли (Detective Sam Gurov), Юлия Снигирь (Alisa), Андрей Ивченко (Kiril), Паскаль Петарди (Vadim), Милан Малисич (Stepan), Дэвид МакНалли (Detective Al Dorian), Маркус Парило (Oleg)
Описание:
Роберт Сондерс, обычный механик, потерял сознание на своем дне рождения и очнулся в морозильнике. Появившиеся русские бандиты начинают обвинять его в краже 8 миллионов долларов. Чтоб Роберт быстрее отдал деньги, бандиты начинают пытать его холодом. Температура падает. Страх растет. Перед Робертом встает выбор, замерзнуть от холода или быть убитым русскими бандитами,так как его все равно живым не отпустят. Но может есть третий выбор..
Рейтинг
imdb.com: 5.90 (16)
MPAA: R - Лицам до 17 лет обязательно присутствие взрослого
Качество: HDRip
Формат: AVI
Видео кодек: XviD
Аудио кодек: AC3/MP3
Видео: XviD, 720x304 (2.35:1), 1923 kbps, 23,976 fps, 0,367 bpp
Аудио №1: MP3 / 2.0 / 48 kHz / 192 kbps /den904
Аудио №2: AC3 / 2.0 / 48 kHz / 256 kbps / 16 bit/ English

General
Complete name : D:ТорентыFreezer.2014.L1.HDRip.1400Mb..avi
Format : AVI
Format/Info : Audio Video Interleave
File size : 1.37 GiB
Duration : 1h 22mn
Overall bit rate : 2 386 Kbps
Writing application : VirtualDubMod 1.5.10.3 | www.virtualdub-fr.org || (build 2550/release)
Writing library : VirtualDubMod build 2550/release

Video
ID : 0
Format : MPEG-4 Visual
Format profile : Advanced Simple@L5
Format settings, BVOP : 2
Format settings, QPel : No
Format settings, GMC : No warppoints
Format settings, Matrix : Custom
Codec ID : XVID
Codec ID/Hint : XviD
Duration : 1h 22mn
Bit rate : 1 924 Kbps
Width : 720 pixels
Height : 304 pixels
Display aspect ratio : 2.35:1
Frame rate : 23.976 fps
Color space : YUV
Chroma subsampling : 4:2:0
Bit depth : 8 bits
Scan type : Progressive
Compression mode : Lossy
Bits/(Pixel*Frame) : 0.367
Stream size : 1.10 GiB (81%)
Writing library : XviD 1.2.1 (UTC 2008-12-04)

Audio #1
ID : 1
Format : MPEG Audio
Format version : Version 1
Format profile : Layer 3
Mode : Joint stereo
Codec ID : 55
Codec ID/Hint : MP3
Duration : 1h 22mn
Bit rate mode : Constant
Bit rate : 192 Kbps
Channel(s) : 2 channels
Sampling rate : 48.0 KHz
Compression mode : Lossy
Delay relative to video : 8ms
Stream size : 113 MiB (8%)
Alignment : Split accross interleaves
Interleave, duration : 42 ms (1.00 video frame)
Interleave, preload duration : 504 ms
Writing library : LAME3.99.4

Audio #2
ID : 2
Format : AC-3
Format/Info : Audio Coding 3
Mode extension : CM (complete main)
Codec ID : 2000
Duration : 1h 22mn
Bit rate mode : Constant
Bit rate : 256 Kbps
Channel(s) : 2 channels
Channel positions : Front: L R
Sampling rate : 48.0 KHz
Bit depth : 16 bits
Compression mode : Lossy
Stream size : 150 MiB (11%)
Alignment : Split accross interleaves
Interleave, duration : 42 ms (1.00 video frame)
Interleave, preload duration : 500 ms
piratbit.pw



Скачать Морозилка через торрент http://i2.imageban.ru/out/2014/01/26/5df556cc8daea929cb6bef6ef9474211.jpg Скачать фильм Морозилка через торрент бесплантно в хорошем качестве Описание: Роберт Сондерс, обычный механик, потерял сознание на своем дне рождения и очнулся в морозильнике. Появившиеся русские бандиты ... 9 10 26
Info! Золотая раздача, скачанное не засчитывается.
Торрент: Зарегистрирован [2014-01-25 20:30] · скачан: 867 раз
Статус: T временная
Размер: 1.37 GB
Как cкачать? Как скачать Морозилка через торрент | UTorrent

% Раздел Тема Автор DL S | L
T Фильмы [HD 720p, 1080p] (Хороший звук DUB, MVO) [ 5.68 GB ] Морозилка / Freezer [ 2014 BDRip 1080p]VO+Оригинал Ворон Скачать
1 | 0

28-11-2019 20:33  

Отключить всю рекламу на сайте


25-01-2014 21:08 Морозилка Скачать торрент  

ох уж эти ужасные русские бандиты!Этот ср..ый халивуд сам то не зае...ся ещё эксплуатировать образ "русского бандита"?Пиндосские тупорылые бараны! piratbit.pw



25-01-2014 21:16 Морозилка Скачать торрент  

Опять русские во всем виноваты. ))piratbit.pw



25-01-2014 21:24 Морозилка Скачать торрент  

Плохие русские бандиты опять взяли "добропорядочного" ни в чем не виновного американского гражданина, что бы сбить с него зелени. Ну что-же посмотрим это "великое" бурлящее новизной и драматическими поворотами творение sarcasticpiratbit.pw



26-01-2014 07:54 Морозилка Скачать торрент  

Точно. Чтоб не обидеть русских (и прочих) бандитов, надо было, чтоб американца поймали ужасные инопланетные бандиты )piratbit.pw



26-01-2014 10:34 Морозилка Скачать торрент  

СТОП ХОЛОДИЛЬНИК,СТОП МОРОЗИЛЬНИК!!! :rofle:piratbit.pw



29-01-2014 19:40 Морозилка Скачать торрент  

когда же снимут фильм ужасов "морозилка против обогревателя" piratbit.pw



29-01-2014 21:15 Морозилка Скачать торрент  

Выход через задний проход. Тяжело будет обычному американскому механикуpiratbit.pw



30-01-2014 02:48 Морозилка Скачать торрент  

Stopper68 писал(а):

ох уж эти ужасные русские бандиты!Этот ср..ый халивуд сам то не зае...ся ещё эксплуатировать образ "русского бандита"?Пиндосские тупорылые бараны!

согласен !!! piratbit.pw



02-02-2014 08:20 Морозилка Скачать торрент  

Дерьмо редкостное! Во время просмотра чуть 3 раза не уснул... даже досматривать не стал. Не тратьте на него времяpiratbit.pw



03-02-2014 16:56 Морозилка Скачать торрент  

Вааще фикальный муви, Да америкос бы здох там без еды и ботинок, Русский Иван как всегда тупое существо..piratbit.pw



    Дорогой пользователь! Огромная просьба, поблагодарите релизера, оцените раздачу и оставьте свои комментарий, если Вы скачали Морозилка через торрент бесплатно! Внесите свою лепту в развитие PiratBit!
    Комментировать посты могут только пользователи прошедшие не сложную регистрацию
    Показать сообщения:    

    Морозилка через торрент
    Скачать бесплатно Морозилка
    Морозилка скачать торрент
    Морозилка смотреть онлайн
    Cкачать фильм Морозилка бесплатно
    Морозилка скачать торрент в хорошем качестве
    Морозилка смотреть онлайн бесплатно в хорошем качестве


    Вы не можете начинать темы
    Вы не можете отвечать на сообщения
    Вы не можете редактировать свои сообщения
    Вы не можете удалять свои сообщения
    Вы не можете голосовать в опросах
    Вы не можете прикреплять файлы к сообщениям
    Вы можете скачивать файлы