Ссылка на приватное зеркало нашего сайта всего за 1$. Внимание количество ограничено!!!

2 сезон

iTunes

iTunes

1

iTunes

iTunes

iTunes

WEBRip

iTunes

30
pack

Вам бонус

ВАЖНО

!!Акция!!

Alien_RageХит недели

RePack

Horizon Zero Dawn

ИГРА 18+

pack

RePack

jed

!!Акция!!

Alien_Rage

RePack

fifa19

RePack

Assassins Creed: Odyssey

RePack

NEED FOR SPEED™ PAYBACK

4 сезон

9 сезон

Бесстыжие 9 сезон

Все сериалы

все сериалы на PB.wtf

RePack

FAR CRY 5
  

Ёлки 3 (Ольга Харина, Дмитрий Киселёв, Александр Котт) [2013 г., Комедия, BDRip 720p] [Лицензия] piratbit.pw

Ёлки 3 через торрент piratbit.pw

Размер: 4.04 GB | Добавлен: 6 лет 8 мес. назад | Торрент скачан:181 раз
Скачать  

23-01-2014 06:11 Ёлки 3 Скачать торрент  

«Вместе теплее»
Ёлки 3
Год выпуска: 2013
Страна: Россия / Базелевс Продакшн
Жанр: Комедия,
Продолжительность: 01:36:50

Режиссер: Ольга Харина Дмитрий Киселёв Александр Котт



В ролях: Иван Ургант, Сергей Светлаков, Гоша Куценко, Валентин Гафт, Татьяна Догилева, Пётр Фёдоров, Анна Чиповская, Мария Шукшина, Константин Хабенский, Антон Богданов,

Описание: Спустя два года они снова с нами: любимые герои «Ёлок» в самых невероятных новогодних историях. Боря и Женя, чьи годовалые дети в канун праздника доведут друзей до психушки. Маленькая девочка Настя, чьи родители разлучат ее влюбленных друг в друга собак. Лыжник и сноубордист в самой экстремальной в их жизни гонке — от военкома. И профессор из Екатеринбурга Андрей, чья любвеобильность вновь не доведет его до добра, а только до проруби в минус 30.

Качество: BDRip 720p
Формат: MKV
Видео кодек: H.264
Аудио кодек: AC3
Видео: 1280x538 (2.37:1), 24.000 fps, 5522 Кbps, 0.334 bit/pixel
Аудио: 48 kHz, AC3 Dolby Digital, 3/2 (L,C,R,l,r) + LFE ch, 448.00 kbps

Релиз группы:
Автор рипа: potroks





Общее
Уникальный идентификатор : 228090610153885183459628450261846327631 (0xAB98A7532CAC947C89452A92FA06014F)
Полное имя : Jolki.3.2013.O.BDRip.720p.-HELLYWOOD.mkv
Формат : Matroska
Версия формата : Version 4 / Version 2
Размер файла : 4,04 Гбайт
Продолжительность : 1 ч. 36 м.
Общий поток : 5969 Кбит/сек
Название фильма : HELLYWOOD - rip by potroks
Дата кодирования : UTC 2014-01-23 05:27:25
Программа кодирования : mkvmerge v5.9.0 ('On The Loose') built on Dec 15 2012 16:39:58
Библиотека кодирования : libebml v1.3.0 + libmatroska v1.4.0

Видео
Идентификатор : 1
Формат : AVC
Формат/Информация : Advanced Video Codec
Профиль формата : High@L4.1
Параметр CABAC формата : Да
Параметр ReFrames формата : 8 кадров
Идентификатор кодека : V_MPEG4/ISO/AVC
Продолжительность : 1 ч. 36 м.
Битрейт : 5522 Кбит/сек
Ширина : 1280 пикселей
Высота : 538 пикселей
Соотношение сторон : 2,40:1
Режим частоты кадров : Постоянный
Частота кадров : 24,000 кадра/сек
Цветовое пространство : YUV
Субдискретизация насыщенности : 4:2:0
Битовая глубина : 8 бит
Тип развёртки : Прогрессивная
Бит/(Пиксели*Кадры) : 0.334
Размер потока : 3,65 Гбайт (91%)
Заголовок : Ёлки 3
Библиотека кодирования : x264 core 130 r2273 b3065e6
Настройки программы : cabac=1 / ref=8 / deblock=1:-2:-2 / analyse=0x3:0x133 / me=umh / subme=11 / psy=1 / psy_rd=1.03:0.00 / mixed_ref=1 / me_range=32 / chroma_me=1 / trellis=2 / 8x8dct=1 / cqm=0 / deadzone=21,11 / fast_pskip=0 / chroma_qp_offset=-2 / threads=6 / lookahead_threads=8 / sliced_threads=0 / nr=0 / decimate=0 / interlaced=0 / bluray_compat=0 / constrained_intra=0 / bframes=9 / b_pyramid=2 / b_adapt=2 / b_bias=0 / direct=3 / weightb=1 / open_gop=0 / weightp=2 / keyint=240 / keyint_min=23 / scenecut=40 / intra_refresh=0 / rc_lookahead=60 / rc=2pass / mbtree=0 / bitrate=5522 / ratetol=1.0 / qcomp=0.70 / qpmin=0 / qpmax=69 / qpstep=4 / cplxblur=20.0 / qblur=0.5 / vbv_maxrate=50000 / vbv_bufsize=62500 / nal_hrd=none / ip_ratio=1.35 / pb_ratio=1.25 / aq=1:0.70
Язык : Russian
Default : Да
Forced : Нет

Аудио
Идентификатор : 2
Формат : AC-3
Формат/Информация : Audio Coding 3
Расширение режима : CM (complete main)
Параметр Endianness формата : Big
Идентификатор кодека : A_AC3
Продолжительность : 1 ч. 36 м.
Вид битрейта : Постоянный
Битрейт : 448 Кбит/сек
Каналы : 5 каналов
Расположение каналов : Front: L C R, Side: L R
Частота : 48,0 КГц
Битовая глубина : 16 бит
Метод сжатия : С потерями
Размер потока : 310 Мбайт (8%)
Заголовок : DD 5.0 @ 448 kbps
Язык : Russian
Default : Да
Forced : Нет

Меню
00:00:00.000 : en:00:00:00.000
00:01:32.708 : en:00:01:32.708
00:10:33.833 : en:00:10:33.833
00:20:56.000 : en:00:20:56.000
00:35:42.375 : en:00:35:42.375
00:46:41.583 : en:00:35:42.375
00:59:21.125 : en:00:59:21.125
01:13:40.500 : en:01:13:40.500
01:25:07.000 : en:01:25:07.000

piratbit.pw



Скачать Ёлки 3 через торрент http://i59.fastpic.ru/big/2014/0122/8d/487277f117005bd73980c5c80d69d98d.png Скачать фильм Ёлки 3 через торрент бесплантно в хорошем качестве Описание: Спустя два года они снова с нами: любимые герои «Ёлок» в самых невероятных новогодних историях. Боря и Женя, чьи годовалые дети в ... 10 10 2
Info! Золотая раздача, скачанное не засчитывается.
Торрент: Зарегистрирован [2014-01-23 06:11] · скачан: 181 раз
Статус: √ проверено
Размер: 4.04 GB
Как cкачать? Как скачать Ёлки 3 через торрент | qTorrent

% Раздел Тема Автор DL S | L
Другие симуляторы [ 723 MB ] Русская рыбалка Installsoft Edition [ Rus Симулятор рыбалки] ЗлостныйПират Скачать
1 | 0
TNT serials [ 11.91 GB ] Родители / Сезон: 3 / Серии: 1-16 из 20 [2020 WEBRip 1080p] bober100 Скачать
1 | 0
TNT serials [ 5.28 GB ] Родители / Сезон: 3 / Серии: 1-18 из 20 [2020 WEBRip] bober100 Скачать
1 | 0
Детективы, Боевики, Триллеры [ 480 MB ] Мастер Чэнь - Шпион из Калькутты 3. Амалия и Золотой век [Абалкина Мария 2019 96 kbps MP3] bober100 Скачать
2 | 0
Наши сериалы [ 44.32 GB ] Маргоша 3 / Серии 1-90 из 90 [2010 драмеди IPTVRip] shk0der Скачать
1 | 0
Фантастика [ 1.15 GB ] Смородинский Георгий - Семнадцатое обновление 3. Стальные Волки Крейда [Геннадий Коршунов 2016 192 kbps MP3] bober100 Скачать
2 | 0
Детективы, Боевики, Триллеры [ 432 MB ] Алан Брэдли - Загадки Флавии де Люс 3. Копченая селедка без горчицы [Мария Абалкина 2017 96 kbps MP3] bober100 Скачать
1 | 0


Последний раз редактировалось: potroks (2014-01-23 08:14), всего редактировалось 1 раз

28-11-2019 20:33  

Отключить всю рекламу на сайте

23-01-2014 06:27 Ёлки 3 Скачать торрент  

potroks
Удалите наименование Р.Г. с постера, и предоставьте скриншот с раздачи, на наш трекер.
piratbit.pw





Последний раз редактировалось: кэп (2014-01-23 09:33), всего редактировалось 1 раз

23-01-2014 09:09 Ёлки 3 Скачать торрент  

Хороший добрый фильмpiratbit.pw



    Дорогой пользователь! Огромная просьба, поблагодарите релизера, оцените раздачу и оставьте свои комментарий, если Вы скачали Ёлки 3 через торрент бесплатно! Внесите свою лепту в развитие PiratBit!
    Комментировать посты могут только пользователи прошедшие не сложную регистрацию
    Показать сообщения:    

    Ёлки 3 через торрент
    Скачать бесплатно Ёлки 3
    Ёлки 3 скачать торрент
    Ёлки 3 смотреть онлайн
    Cкачать фильм Ёлки 3 бесплатно
    Ёлки 3 скачать торрент в хорошем качестве
    Ёлки 3 смотреть онлайн бесплатно в хорошем качестве


    Вы не можете начинать темы
    Вы не можете отвечать на сообщения
    Вы не можете редактировать свои сообщения
    Вы не можете удалять свои сообщения
    Вы не можете голосовать в опросах
    Вы не можете прикреплять файлы к сообщениям
    Вы можете скачивать файлы