MEGA NEWS Получи личный уникальный адрес сайта и защити себя от блокировок. Внимание количество ограничено!!!

iTunes

1+1

iTunes

мы

iTunes

1

iTunes

Чернобыль

iTunes

Ральф против интернета

Лицензия

ПШазам

Лицензия

Игра престолов

Лицензия

30
pack

ВАЖНО

!!Акция!!

Alien_RageХит недели

RePack

Resident Evil 21

ИГРА 18+

pack

RePack

Metro:Exodus

!!Акция!!

Alien_Rage

RePack

fifa19

RePack

Assassins Creed: Odyssey

RePack

NEED FOR SPEED™ PAYBACK

3 сезон

9 сезон

Бесстыжие 9 сезон

Все сериалы

все сериалы на PB.wtf

RePack

FAR CRY 5
Ребята, катастрофически не хватает 1900р. для оплаты серверов за АВГУСТ (всвязи с блокировками трафик упал в 3 раза), 1-2р., выручайте.
  

Старый жулик / Ye Olden Grafter (Дэвид Киркланд / David Kirkland) [1915, комедия, DVDRip] [Original Eng] piratbit.pw

Старый жулик через торрент piratbit.pw

Размер: 112 MB | Добавлен: 5 лет 9 мес. назад | Торрент скачан:11 раз
Скачать  

18-01-2014 08:57 Старый жулик Скачать торрент  

Старый жулик / Ye Olden Grafter Год выпуска: 1915
Страна: США
Жанр: комедия
Продолжительность: 00:06:43
Перевод: Не требуется [Немое кино]
Cубтитры: нет
Оригинальная аудиодорожка: английский

Режиссер: Дэвид Киркланд / David Kirkland

В ролях
: Мак Суэйн, Гарри Гриббон, Мэй Буш, Эдвард Ф.Клайн, Билли Уолш, Гарри Уорд.

Описание: Пока девушка, сидя на скамейке, флиртует с молодым человеком, сидящим неподалеку от нее, старый жулик утаскивает у нее узелок с деньгами. Девушка в панике, но молодой человек берется забрать деньги у мошенника, для чего изобретает хитроумный способ. Старая комедия-фарс, через месяц будет 99 лет со дня выхода ее на экраны. В ней нет ни Лорела, ни Харди, но она близка по духу ранним их фильмам и найдена на коллекции ДВД, посвященной Лорелу и Харди. Главную роль жулика играет комик немого кино Мак Суэйн, известный нам в основном по партнерству в фильмах с великим Чаплиным.



Качество видео: DVDRip
Формат видео: AVI
Видео кодек: XviD
Аудио кодек: AC3
Видео: 640x480 (1.33:1), 23.976 fps, XviD build 46 ~2132 kbps avg, 0.29 bit/pixel
Аудио: 48 kHz, AC3 Dolby Digital, 2/0 (L,R) ch, ~192 kbps
Релиз
Внимание, фильм немой. Все интертитры, которых, впрочем, не очень много, как обычно, полностью переведены на русский. Рип сделан с ДВД из большой коллекции "The Larger World of Laurel and Hardy". Много фильмов с этой коллекции, в основном те, где играют Лорел или Харди, мы в свое время выпустили, но там еще немало фильмов, в которых играют люди, близкие по съемкам к Лорелу или Харди, и эти фильмы мы делали лишь в малой степени, теперь мы этот пробел убираем и будем потихоньку раздавать и эти фильмы. Музыкальное сопровождение имеется, оригинальное. Коллекцию ДВД предоставила шам. Рип сделал bankolya, перевод тоже его, boralx его чуть отредактировал.
General
Complete name : D:РаздачиYe.Olden.Grafter.1915.rus.sh.avi
Format : AVI
Format/Info : Audio Video Interleave
File size : 112 MiB
Duration : 6mn 43s
Overall bit rate : 2 334 Kbps
Writing application : VirtualDubMod 1.5.10.2 (build 2540/release)
Writing library : VirtualDubMod build 2540/release
Video
ID : 0
Format : MPEG-4 Visual
Format profile : Advanced Simple@L5
Format settings, BVOP : 2
Format settings, QPel : No
Format settings, GMC : No warppoints
Format settings, Matrix : Default (H.263)
Codec ID : XVID
Codec ID/Hint : XviD
Duration : 6mn 43s
Bit rate : 2 132 Kbps
Width : 640 pixels
Height : 480 pixels
Display aspect ratio : 4:3
Frame rate : 23.976 fps
Color space : YUV
Chroma subsampling : 4:2:0
Bit depth : 8 bits
Scan type : Progressive
Compression mode : Lossy
Bits/(Pixel*Frame) : 0.289
Stream size : 103 MiB (91%)
Writing library : XviD 1.1.2 (UTC 2006-11-01)
Audio
ID : 1
Format : AC-3
Format/Info : Audio Coding 3
Mode extension : CM (complete main)
Codec ID : 2000
Duration : 6mn 43s
Bit rate mode : Constant
Bit rate : 192 Kbps
Channel(s) : 2 channels
Channel positions : Front: L R
Sampling rate : 48.0 KHz
Bit depth : 16 bits
Compression mode : Lossy
Stream size : 9.23 MiB (8%)
Alignment : Split accross interleaves
Interleave, duration : 42 ms (1.00 video frame)
Interleave, preload duration : 500 ms
piratbit.pw



Скачать Старый жулик через торрент http://i60.fastpic.ru/big/2014/0117/cc/9e13df40fd21a73d59c4594638b8b8cc.jpg Скачать фильм Старый жулик через торрент бесплантно в хорошем качестве Описание: Пока девушка, сидя на скамейке, флиртует с молодым человеком, сидящим неподалеку от нее, старый жулик утаскивает у нее узелок с ... 10 10 6
Info! Золотая раздача, скачанное не засчитывается.
Торрент: Зарегистрирован [2014-01-18 08:57] · скачан: 11 раз
Статус: √ проверено
Размер: 112 MB
Как cкачать? Как скачать Старый жулик через торрент | qTorrent


>> Регистрируемся здесь <<






Отзывы и комментарии о схеме читаем и пишем здесь: ---> Отзывы и комментарии о схеме

Новые благодарочки в телеграм довольных пользователей:
скриншот   скриншот   скриншот   скриншот   скриншот

18-01-2014 09:21 Старый жулик Скачать торрент  

killermax2013 ,респект,приятно ! А создателям фильма было бы приятно вдвойне,если б они знали ,что у их творения звук 48 kHz, AC3 Dolby Digital, 2/0 (L,R) ch, ~192 kbps .
sarcasticpiratbit.pw



18-01-2014 09:45 Старый жулик Скачать торрент  

igorutka писал(а):

killermax2013 ,респект,приятно ! А создателям фильма было бы приятно вдвойне,если б они знали ,что у их творения звук 48 kHz, AC3 Dolby Digital, 2/0 (L,R) ch, ~192 kbps .
sarcastic

ну так в фильме музыка присутствует :pleasantry: занятная киношка roflpiratbit.pw



    Дорогой пользователь! Огромная просьба, поблагодарите релизера, оцените раздачу и оставьте свои комментарий, если Вы скачали Старый жулик через торрент бесплатно! Внесите свою лепту в развитие PiratBit!
    Комментировать посты могут только пользователи прошедшие не сложную регистрацию
    Показать сообщения:    

    Старый жулик через торрент
    Скачать бесплатно Старый жулик
    Старый жулик скачать торрент
    Старый жулик смотреть онлайн
    Cкачать фильм Старый жулик бесплатно
    Старый жулик скачать торрент в хорошем качестве
    Старый жулик смотреть онлайн бесплатно в хорошем качестве


    Вы не можете начинать темы
    Вы не можете отвечать на сообщения
    Вы не можете редактировать свои сообщения
    Вы не можете удалять свои сообщения
    Вы не можете голосовать в опросах
    Вы не можете прикреплять файлы к сообщениям
    Вы можете скачивать файлы