2 сезон

iTunes

MVO

1

2 сезон

iTunes

iTunes

1 сезон

RePack

30

Новинка

ВАЖНО

ИГРА 18+

pack

RePack

MK11
pack

Легкие деньги

RePack

jed

RePack

fifa19

RePack

RDR2

RePack

NEED FOR SPEED™ PAYBACK

4 сезон

9 сезон

Бесстыжие 9 сезон

Все сериалы

все сериалы на PB.wtf

RePack

FAR CRY 5

Anonymous, добрый день, мы не успеваем собрать деньги на оплату серверов за декабрь и январь, помогите нам пожалуйста в это трудное время. В качестве благодарности мы отключим Вам всю рекламу на сайте (укажите свой ник в строку Ваше имя)!

×
  
Magnet ссылка

Сталинград (Фёдор Бондарчук) [2013, Военный, драма, боевик, BDRip 1080p, Лицензия] piratbit.pw

Сталинград через торрент piratbit.pw

Качают: 1 [ 0 KB/s ]
Размер: 12.8 GB | Добавлен: 7 лет назад | Торрент скачан:602 раза
Скачать  

02-12-2013 08:06 Сталинград Скачать торрент  

Сталинград

Год выпуска : 2013
Страна: Россия
Жанр: Военный, драма, боевик

Продолжительность: 02:10:48
Перевод: Не требуется [Лицензия]
Субтитры: Нет
Режиссер: Фёдор Бондарчук
В ролях: Мария Смольникова (Катя), Янина Студилина (Маша), Пётр Фёдоров (капитан Громов), Томас Кречман (капитан Петер Кан), Сергей Бондарчук (Сергей), Дмитрий Лысенков (снайпер Чванов), Андрей Смоляков (артиллерист Поляков), Алексей Барабаш (разведчик Александр Никифоров), Олег Волку (Романов), Хайнер Лаутербах (Хензе), Полина Райкина (Наташка), Анна Вон Аблер (Нина)
Описание: 1942-й год. Сталинград. Советские войска планируют контрнаступление на немецкие части, занявшие правый берег Волги. Наступление сорвано. Лишь разведчикам под командованием капитана Громова удается перебраться на другой берег и закрепиться в одном из домов. Им дан приказ удержать его любой ценой. Кроме нескольких чудом уцелевших советских солдат они находят в доме его последнюю жительницу - 19-летнюю Катю.
Приказ отбить дом, захваченный противником, получает немецкий офицер Кан. На фоне одного из самых кровопролитных сражений в истории человечества разворачиваются истории любви и драматического противостояния характеров.
Рейтинг

imdb.com: 4.90 (2024)
Качество: BDRip 1080p
Формат: MKV
Видео кодек: AVC
Аудио кодек: DTS
Видео: AVC, 1920x788 (2.40:1), 12500 kbps, 23,976 fps
Аудио: русский / DTS / 5.1 / 48 kHz / 1510 kbps / 24 bit

General
Unique ID : 193243220184262203003264840665836277455 (0x91614A59A3599C4FBFC68907B64BCECF)
Complete name : H:Stalingrad.2013.1080.CMEGRoup.mkv
Format : Matroska
Format version : Version 4 / Version 2
File size : 12.8 GiB
Duration : 2h 10mn
Overall bit rate : 14.0 Mbps
Movie name : CMEGRoup
Encoded date : UTC 2013-12-01 15:05:18
Writing application : mkvmerge v6.5.0 ('Isn't she lovely') built on Oct 20 2013 12:50:05
Writing library : libebml v1.3.0 + libmatroska v1.4.1

Video
ID : 1
Format : AVC
Format/Info : Advanced Video Codec
Format profile : High@L4.1
Format settings, CABAC : Yes
Format settings, ReFrames : 4 frames
Codec ID : V_MPEG4/ISO/AVC
Duration : 2h 10mn
Bit rate : 12.5 Mbps
Width : 1 920 pixels
Height : 788 pixels
Display aspect ratio : 2.40:1
Frame rate : 23.976 fps
Color space : YUV
Chroma subsampling : 4:2:0
Bit depth : 8 bits
Scan type : Progressive
Bits/(Pixel*Frame) : 0.345
Stream size : 11.2 GiB (87%)
Writing library : x264 core 138 r2358 9e941d1
Encoding settings : cabac=1 / ref=4 / deblock=1:-3:-3 / analyse=0x3:0x113 / me=umh / subme=11 / psy=1 / psy_rd=1.00:0.00 / mixed_ref=1 / me_range=48 / chroma_me=1 / trellis=2 / 8x8dct=1 / cqm=0 / deadzone=21,11 / fast_pskip=1 / chroma_qp_offset=-2 / threads=12 / lookahead_threads=1 / sliced_threads=0 / nr=0 / decimate=1 / interlaced=0 / bluray_compat=0 / constrained_intra=0 / bframes=5 / b_pyramid=2 / b_adapt=1 / b_bias=0 / direct=2 / weightb=1 / open_gop=0 / weightp=2 / keyint=240 / keyint_min=23 / scenecut=40 / intra_refresh=0 / rc_lookahead=40 / rc=2pass / mbtree=1 / bitrate=12500 / ratetol=1.0 / qcomp=0.60 / qpmin=10 / qpmax=51 / qpstep=4 / cplxblur=20.0 / qblur=0.5 / vbv_maxrate=62500 / vbv_bufsize=78125 / nal_hrd=none / ip_ratio=1.40 / aq=1:1.00 / zones=180511,188182,q=40
Language : English
Default : Yes
Forced : No

Audio
ID : 2
Format : DTS
Format/Info : Digital Theater Systems
Codec ID : A_DTS
Duration : 2h 10mn
Bit rate mode : Constant
Bit rate : 1 510 Kbps
Channel(s) : 6 channels
Channel positions : Front: L C R, Side: L R, LFE
Sampling rate : 48.0 KHz
Bit depth : 24 bits
Compression mode : Lossy
Stream size : 1.38 GiB (11%)
Language : Russian
Default : Yes
Forced : No

Menu
00:00:00.000 : en:00:00:00.000
00:15:37.436 : en:00:15:37.436
00:31:59.334 : en:00:31:59.334
00:46:05.888 : en:00:46:05.888
01:03:22.048 : en:01:03:22.048
01:20:44.840 : en:01:20:44.840
01:35:53.164 : en:01:35:53.164
01:51:11.790 : en:01:51:11.790
piratbit.pw



Скачать Сталинград через торрент http://i6.imageban.ru/out/2013/12/01/2d6882834f00f3351b87975ceb0fce3d.png Скачать фильм Сталинград через торрент бесплантно в хорошем качестве Описание: 1942-й год. Сталинград. Советские войска планируют контрнаступление на немецкие части, занявшие правый берег Волги. Наступление ... 9 10 63
Info! Золотая раздача, скачанное не засчитывается.
Торрент: Зарегистрирован [2014-01-06 00:09] · скачан: 602 раз
Статус: √ проверено
Размер: 12.8 GB
Как cкачать? Как скачать Сталинград через торрент | UTorrent

% Раздел Тема Автор DL S | L
Детективы, Боевики, Триллеры [ 508 MB ] Владимир Першанин - Снайперы Сталинграда [Дмитрий Шабров 2020 128 kbps MP3] bober100 Скачать
2 | 0
Старые игры [ 1.11 GB ] Сталинград [RePack RUS] by RUSJATINA RUSJATINA Скачать
1 | 0
Документальные фильмы и телепередачи [ 857 MB ] Сталинград. Мы еще живы или нет? [2018 Документальный SATRip] Armstrong Скачать
1 | 0
Фильмы [HD 720p, 1080p] (Хороший звук DUB, MVO) [ 9.86 GB ] Сталинград / Stalingrad [1993 военный BDRip 720p] DVO + AVO + Original ger + Sub rus eng -Lexx- Скачать
2 | 0
Наши фильмы (HD, WEB-DL 720p, 1080p) [ 5.37 GB ] Сталинград [2013 военный BDRip 720p] [] potroks Скачать
1 | 0
Наши фильмы (Blu-ray, BD-Remux, HDDVD) [ 38.84 GB ] Сталинград [2013 военный Blu-ray EUR] Russian Mafia Скачать
1 | 0
Наши новые фильмы 2013 [ 1.46 GB ] Сталинград [2013 военный HDRip][] MihailHD Скачать
1 | 0

28-11-2019 20:33  

Отключить всю рекламу на сайте

02-12-2013 08:16 Сталинград Скачать торрент  

неожиданноpiratbit.pw



02-12-2013 08:36 Сталинград Скачать торрент  

раздавать то будете?piratbit.pw



02-12-2013 08:38 Сталинград Скачать торрент  

спасибо, пошла закачкаpiratbit.pw



02-12-2013 10:48 Сталинград Скачать торрент  

А imax 3d ожидается сегодня?piratbit.pw



02-12-2013 23:10 Сталинград Скачать торрент  

забираю обязательно но все же жду 3D
эту раздачу поддерживаю целую неделю на 100 метрах!
тяните ребята на здоровье!piratbit.pw



06-01-2014 08:47 Сталинград Скачать торрент  

Снова эту херотень выложилиpiratbit.pw



23-04-2014 05:59 Сталинград Скачать торрент  

Полосы черные снизу и сверху есть? Кто смотрел отпишитесь пожалуйстаpiratbit.pw



02-07-2017 06:59 Сталинград Скачать торрент  

станьте плиз на раздачу piratbit.pw



    Дорогой пользователь! Огромная просьба, поблагодарите релизера, оцените раздачу и оставьте свои комментарий, если Вы скачали Сталинград через торрент бесплатно! Внесите свою лепту в развитие PiratBit!
    Комментировать посты могут только пользователи прошедшие не сложную регистрацию
    Показать сообщения:    

    Сталинград через торрент
    Скачать бесплатно Сталинград
    Сталинград скачать торрент
    Сталинград смотреть онлайн
    Cкачать фильм Сталинград бесплатно
    Сталинград скачать торрент в хорошем качестве
    Сталинград смотреть онлайн бесплатно в хорошем качестве


    Вы не можете начинать темы
    Вы не можете отвечать на сообщения
    Вы не можете редактировать свои сообщения
    Вы не можете удалять свои сообщения
    Вы не можете голосовать в опросах
    Вы не можете прикреплять файлы к сообщениям
    Вы можете скачивать файлы