1 сезон

1 сезон

iTunes

1

КиноПоиск HD

Кинопоиск HD

iTunes

13

1 сезон

RePack

30

Новинка

ВАЖНО

ИГРА 18+

pack

RePack

MK11
pack

Легкие деньги

RePack

jed

RePack

fifa19

RePack

RDR2

RePack

NEED FOR SPEED™ PAYBACK

4 сезон

9 сезон

Бесстыжие 9 сезон

Все сериалы

все сериалы на PB.wtf

RePack

FAR CRY 5
  
Magnet ссылка

Пандорум / Pandorum (Кристиан Алверт / Christian Alvart) [2009, Фантастика, боевик, триллер, ужасы, BDRip] [AVO] (Гаврилов) piratbit.pw

Пандорум через торрент piratbit.pw

Размер: 1.46 GB | Добавлен: 7 лет 3 мес. назад | Торрент скачан:354 раза
Скачать  

14-01-2014 14:41 Пандорум Скачать торрент  

Пандорум / Pandorum

Год выпуска: 2009
Страна: Германия, Великобритания
Продолжительность: 01:48:05
Жанр: ужасы, фантастика, боевик, триллер
Перевод: Авторский (одноголосый, закадровый)[Гаврилов Андрей]
Русские субтитры: нет

Режиссер: Кристиан Алверт / Christian Alvart

В ролях: Деннис Куэйд (Payton), Бен Фостер (Bower), Кэм Жиганде (Gallo), Антье Трое (Nadia), Кунг Ле (Manh), Эдди Роус (Leland), Норман Ридус (Shepard), Андре Хеннике (Hunter Leader), Фридерике Кемптер (Evalon), Нильс-Бруно Шмидт (Insane Officer 'Eden'), Asia Luna Mohmand (Child Hunter), Дельфина Шийо (Young Bower's Mother)

Описание: В безднах космоса движется звездолет. Два члена команды, пробудившиеся от гиперсна, оказываются в сложной ситуации: оборудование не работает, вспомнить они ничего не могут. Какова была их миссия? Сколько времени прошло? Где они? Кто они? На все эти вопросы у них нет ответов. К тому же, на корабле обнаруживаются чужие - злобные воины, которые крушат все на своем пути.
У космических путешественников очень мало времени. Теперь для них собственные жизни - не самое главное, ибо только от них двоих, возможно, зависит спасение человечества. Нужно любой ценой восстановить управление кораблем, пока загадочный Пандорум не взял Влacть в свои руки.


Качество: BDRip (Cпасибо D4gon)
Формат: AVI
Видео кодек: XviD
Аудио кодек: AC3
Видео: 720x304 (2.37:1), 23.976 fps, XviD build 73 ~1473 kbps avg, 0.28 bit/pixel
Аудио: 48 kHz, AC3 Dolby Digital, 3/2 (L,C,R,l,r) + LFE ch, ~448 kbps - RUS - AVO [А. Гаврилов]
General
Complete name : E:INTERNETPandorum.2009.XviD.BDRip
Format : AVI
Format/Info : Audio Video Interleave
File size : 1.46 GiB
Duration : 1h 48mn
Overall bit rate : 1 931 Kbps
Movie name : Пандорум / Pandorum [2009] BDRip
Director : Юpист
Genre : ужасы, фантастика, боевик, триллер
Writing application : VirtualDubMod 1.5.10.3 | www.virtualdub-fr.org || (build 2550/release)
Writing library : VirtualDubMod build 2550/release

Video
ID : 0
Format : MPEG-4 Visual
Format profile : Advanced Simple@L5
Format settings, BVOP : 1
Format settings, QPel : No
Format settings, GMC : No warppoints
Format settings, Matrix : Custom
Codec ID : XVID
Codec ID/Hint : XviD
Duration : 1h 48mn
Bit rate : 1 474 Kbps
Width : 720 pixels
Height : 304 pixels
Display aspect ratio : 2.35:1
Frame rate : 23.976 fps
Color space : YUV
Chroma subsampling : 4:2:0
Bit depth : 8 bits
Scan type : Progressive
Compression mode : Lossy
Bits/(Pixel*Frame) : 0.281
Stream size : 1.11 GiB (76%)
Writing library : XviD 73

Audio
ID : 1
Format : AC-3
Format/Info : Audio Coding 3
Mode extension : CM (complete main)
Codec ID : 2000
Duration : 1h 48mn
Bit rate mode : Constant
Bit rate : 448 Kbps
Channel(s) : 6 channels
Channel positions : Front: L C R, Side: L R, LFE
Sampling rate : 48.0 KHz
Bit depth : 16 bits
Compression mode : Lossy
Stream size : 346 MiB (23%)
Alignment : Split accross interleaves
Interleave, duration : 42 ms (1.00 video frame)
Interleave, preload duration : 500 ms
Title : RUS - AVO [А. Гаврилов]


Фильм снимался на знаменитой студии Бабельсберг в Берлине, где ещё Фриц Ланг создавал свой «Метрополис».
На Западе фильм показывали в кинотеатрах с поддержкой D-Box. Это система вибраций и движений, которая монтируется в кресло и позволяет глубже погрузится в действие.

piratbit.pw



Скачать Пандорум через торрент http://i60.fastpic.ru/big/2014/0114/96/9238832d7818b40a0d2dde639574e596.jpg Скачать фильм Пандорум через торрент бесплантно в хорошем качестве Описание: В безднах космоса движется звездолет. Два члена команды, пробудившиеся от гиперсна, оказываются в сложной ситуации: оборудование ... 9.3 10 15
Info! Золотая раздача, скачанное не засчитывается.
Торрент: Зарегистрирован [2014-01-14 14:41] · скачан: 354 раз
Статус: √ проверено
Размер: 1.46 GB
Как cкачать? Как скачать Пандорум через торрент | UTorrent

% Раздел Тема Автор DL S | L
Фильмы [HD 720p, 1080p] (Хороший звук DUB, MVO) [ 4.65 GB ] Пандорум / Pandorum [2009 BDRip 1080p HEVC ] Мичман37 Скачать
1 | 0
Фильмы [HD 720p, 1080p] (Хороший звук DUB, MVO) [ 7.95 GB ] Пандорум / Pandorum [2009 BDRip 720p ] DUB AVO potroks Скачать
1 | 0
Фильмы [HD 720p, 1080p] (Хороший звук DUB, MVO) [ 19.82 GB ] Пандорум / Pandorum [2009 BDRip 1080p by msltel] DUB 3 x AVO / Open Matte msltel Скачать
1 | 0
Фильмы [HD 720p, 1080p] (Хороший звук DUB, MVO) [ 6.49 GB ] Пандорум / Pandorum [2009 BDRip 720p by msltel] DUB 3 x AVO / Open Matte msltel Скачать
1 | 0
Фильмы (HD 720p, 1080p) (48-60 fps) [ 11.14 GB ] Пандорум / Pandorum [2009 BDRip 1080p 60fps] DUB от R.G. HD-Films Бавария Скачать
1 | 0
T Релизы по Парсеру [Игры, Сериалы и Фильмы и другое...] [ 1.45 GB ] Пандорум / Pandorum [2009 Германия BDRip] Dub sanekbest1 Скачать
1 | 0
Фильмы [HD 720p, 1080p] (Хороший звук DUB, MVO) [ 12.47 GB ] Пандорум / Pandorum [2009 BDRip 1080p] RaSSeLBeatZ Скачать
1 | 0

28-11-2019 20:33  

Отключить всю рекламу на сайте

14-01-2014 14:58 Пандорум Скачать торрент  

Классный фильм я не люблю Германские фильмы, но этот исключениеpiratbit.pw



14-01-2014 17:02 Пандорум Скачать торрент  

фильм офигенный!!!piratbit.pw



27-05-2015 18:08 Пандорум Скачать торрент  

фильм офигенный. перевод- !!!!piratbit.pw



27-05-2015 21:45 Пандорум Скачать торрент  

Васисуалий писал(а):

фильм офигенный. перевод- !!!!

перевод не нравится то есть альтернатива в бубляжеpiratbit.pw



    Дорогой пользователь! Огромная просьба, поблагодарите релизера, оцените раздачу и оставьте свои комментарий, если Вы скачали Пандорум через торрент бесплатно! Внесите свою лепту в развитие PiratBit!
    Комментировать посты могут только пользователи прошедшие не сложную регистрацию
    Показать сообщения:    

    Пандорум через торрент
    Скачать бесплатно Пандорум
    Пандорум скачать торрент
    Пандорум смотреть онлайн
    Cкачать фильм Пандорум бесплатно
    Пандорум скачать торрент в хорошем качестве
    Пандорум смотреть онлайн бесплатно в хорошем качестве


    Вы не можете начинать темы
    Вы не можете отвечать на сообщения
    Вы не можете редактировать свои сообщения
    Вы не можете удалять свои сообщения
    Вы не можете голосовать в опросах
    Вы не можете прикреплять файлы к сообщениям
    Вы можете скачивать файлы