Ссылка на приватное зеркало нашего сайта всего за 1$. Внимание количество ограничено!!!

2 сезон

iTunes

1 сезон

1

2 сезон

2 сезон

iTunes

1 сезон

RePack

30

Ultimate

ВАЖНО

ИГРА 18+

pack

RePack

MK11
pack

Забери бонус

RePack

jed

!!Акция!!

Alien_Rage

RePack

fifa19

RePack

Assassins Creed: Odyssey

RePack

NEED FOR SPEED™ PAYBACK

4 сезон

9 сезон

Бесстыжие 9 сезон

Все сериалы

все сериалы на PB.wtf

RePack

FAR CRY 5
  

Гадкий Я: Мини-фильмы. Миньоны / Despicable Me Presents: Minions Mini-Movies & Minion Madn (Пьер Соффин, Крис Рено) [2010-2013 г., Мультфильм, короткометражный, комедия, приключения, семейный, DVDRip, Профессиональный многоголосый] piratbit.pw

Гадкий Я: Мини-фильмы. Миньоны через торрент piratbit.pw

Размер: 341 MB | Добавлен: 6 лет 10 мес. назад | Торрент скачан:1577 раз
Скачать  

13-01-2014 05:58 Гадкий Я: Мини-фильмы. Миньоны Скачать торрент  

Гадкий Я: Мини-фильмы. Миньоны / Despicable Me Presents: Minions Mini-Movies & Minion Madn
Год выпуска: 2010-2013
Страна: США, Illumination Entertainment, Reel FX Creative Studios, Universal Studios Home Entertainment
Жанр: Мультфильм, короткометражный, комедия, приключения, семейный
Продолжительность: 6 х ~ 00:04:00
Перевод: Профессиональный многоголосый

Режиссер: Пьер Соффин Крис Рено
В ролях: Пьер Соффин, Миранда Косгров, Элси Фишер, Дэна Гайер




Описание:
Жёлтые коротышки, служат армией и помощниками для Грю. Хотя и понимают человеческую речь, говорить по-человечески не умеют, но могут произносить отдельные слова, но чаще они общаются на своём языке между собой. Глуповатые, но очень полезные. Интересно, что у некоторых миньонов только один глаз. Замечательное дополнение к известному мультфильмам "Гадкий я" и "Гадкий я 2".

Качество: DVDRip
Формат: AVI
Видео кодек: XviD
Аудио кодек: AC3
Видео: 720 x 400, 25,000 кадров/сек, ~1500 kb/s
Аудио#1: AC-3, 6ch. 448 kb/s, 48,0 КГц
скриншот   скриншот   скриншот   скриншот   скриншот  
скриншот   скриншот   скриншот   скриншот   скриншот  

1. Преображение дома - Home makeover
2. Ознакомительный день - Orientation Day
3. Банан - Banana (без перевода – не требуется, нет диалогов)
4. Паника в почтовом отделении - Panic in the Mailroom (без перевода – не требуется, нет диалогов)
5. Щенок - Puppy (без перевода – не требуется, нет диалогов)
6. Страховочные колеса - Training Wheels (без перевода)

Код:

Общее
Полное имя : D:Гадкий Я. Мини-фильмы. Миньоны. Серия 01.avi
Формат : AVI
Формат/Информация : Audio Video Interleave
Размер файла : 49,1 Мбайт
Продолжительность : 4 м. 12 с.
Общий поток : 1630 Кбит/сек
Программа кодирования : VirtualDubMod 1.5.10.3 | www.virtualdub-fr.org || (build 2550/release)
Библиотека кодирования : VirtualDubMod build 2550/release

Видео
Идентификатор : 0
Формат : MPEG-4 Visual
Профиль формата : Advanced Simple@L5
Параметр BVOP формата : 1
Параметр QPel формата : Нет
Параметр GMC формата : Без точки перехода
Параметр матрицы формата : Default (H.263)
Идентификатор кодека : XVID
Идентификатор кодека/Подсказка : XviD
Продолжительность : 4 м. 12 с.
Битрейт : 1172 Кбит/сек
Ширина : 720 пикселей
Высота : 400 пикселей
Соотношение сторон : 16:9
Частота кадров : 25,000 кадров/сек
Цветовое пространство : YUV
Субдискретизация насыщенности : 4:2:0
Битовая глубина : 8 бит
Тип развёртки : Прогрессивная
Метод сжатия : С потерями
Бит/(Пиксели*Кадры) : 0.163
Размер потока : 35,3 Мбайт (72%)
Библиотека кодирования : XviD 1.2.1 (UTC 2008-12-04)

Аудио
Идентификатор : 1
Формат : AC-3
Формат/Информация : Audio Coding 3
Расширение режима : CM (complete main)
Идентификатор кодека : 2000
Продолжительность : 4 м. 12 с.
Вид битрейта : Постоянный
Битрейт : 448 Кбит/сек
Каналы : 6 каналов
Расположение каналов : Front: L C R, Side: L R, LFE
Частота : 48,0 КГц
Битовая глубина : 16 бит
Метод сжатия : С потерями
Размер потока : 13,5 Мбайт (27%)
Выравнивание : Разделение по промежуткам
Продолжительность промежутка : 40 мс. (1,00 видеокадр)
Время предзагрузки промежутка : 500 мс.

Общее
Полное имя : D:Гадкий Я. Мини-фильмы. Миньоны. Серия 02.avi
Формат : AVI
Формат/Информация : Audio Video Interleave
Размер файла : 52,2 Мбайт
Продолжительность : 3 м. 49 с.
Общий поток : 1903 Кбит/сек
Программа кодирования : VirtualDubMod 1.5.10.3 | www.virtualdub-fr.org || (build 2550/release)
Библиотека кодирования : VirtualDubMod build 2550/release

Видео
Идентификатор : 0
Формат : MPEG-4 Visual
Профиль формата : Advanced Simple@L5
Параметр BVOP формата : 1
Параметр QPel формата : Нет
Параметр GMC формата : Без точки перехода
Параметр матрицы формата : Default (H.263)
Идентификатор кодека : XVID
Идентификатор кодека/Подсказка : XviD
Продолжительность : 3 м. 49 с.
Битрейт : 1444 Кбит/сек
Ширина : 720 пикселей
Высота : 400 пикселей
Соотношение сторон : 16:9
Частота кадров : 25,000 кадров/сек
Цветовое пространство : YUV
Субдискретизация насыщенности : 4:2:0
Битовая глубина : 8 бит
Тип развёртки : Прогрессивная
Метод сжатия : С потерями
Бит/(Пиксели*Кадры) : 0.201
Размер потока : 39,6 Мбайт (76%)
Библиотека кодирования : XviD 1.2.1 (UTC 2008-12-04)

Аудио
Идентификатор : 1
Формат : AC-3
Формат/Информация : Audio Coding 3
Расширение режима : CM (complete main)
Идентификатор кодека : 2000
Продолжительность : 3 м. 49 с.
Вид битрейта : Постоянный
Битрейт : 448 Кбит/сек
Каналы : 6 каналов
Расположение каналов : Front: L C R, Side: L R, LFE
Частота : 48,0 КГц
Битовая глубина : 16 бит
Метод сжатия : С потерями
Задержка видео : 8 мс.
Размер потока : 12,3 Мбайт (24%)
Выравнивание : Разделение по промежуткам
Продолжительность промежутка : 40 мс. (1,00 видеокадр)
Время предзагрузки промежутка : 500 мс.

Общее
Полное имя : D:Гадкий Я. Мини-фильмы. Миньоны. Серия 03.avi
Формат : AVI
Формат/Информация : Audio Video Interleave
Размер файла : 44,6 Мбайт
Продолжительность : 3 м. 35 с.
Общий поток : 1735 Кбит/сек
Программа кодирования : VirtualDubMod 1.5.10.3 | www.virtualdub-fr.org || (build 2550/release)
Библиотека кодирования : VirtualDubMod build 2550/release

Видео
Идентификатор : 0
Формат : MPEG-4 Visual
Профиль формата : Advanced Simple@L5
Параметр BVOP формата : 1
Параметр QPel формата : Нет
Параметр GMC формата : Без точки перехода
Параметр матрицы формата : Default (H.263)
Идентификатор кодека : XVID
Идентификатор кодека/Подсказка : XviD
Продолжительность : 3 м. 35 с.
Битрейт : 1277 Кбит/сек
Ширина : 720 пикселей
Высота : 400 пикселей
Соотношение сторон : 16:9
Частота кадров : 25,000 кадров/сек
Цветовое пространство : YUV
Субдискретизация насыщенности : 4:2:0
Битовая глубина : 8 бит
Тип развёртки : Прогрессивная
Метод сжатия : С потерями
Бит/(Пиксели*Кадры) : 0.177
Размер потока : 32,8 Мбайт (74%)
Библиотека кодирования : XviD 1.2.1 (UTC 2008-12-04)

Аудио
Идентификатор : 1
Формат : AC-3
Формат/Информация : Audio Coding 3
Расширение режима : CM (complete main)
Идентификатор кодека : 2000
Продолжительность : 3 м. 35 с.
Вид битрейта : Постоянный
Битрейт : 448 Кбит/сек
Каналы : 6 каналов
Расположение каналов : Front: L C R, Side: L R, LFE
Частота : 48,0 КГц
Битовая глубина : 16 бит
Метод сжатия : С потерями
Задержка видео : 16 мс.
Размер потока : 11,5 Мбайт (26%)
Выравнивание : Разделение по промежуткам
Продолжительность промежутка : 40 мс. (1,00 видеокадр)
Время предзагрузки промежутка : 500 мс.

Общее
Полное имя : D:Гадкий Я. Мини-фильмы. Миньоны. Серия 04.avi
Формат : AVI
Формат/Информация : Audio Video Interleave
Размер файла : 54,3 Мбайт
Продолжительность : 4 м. 3 с.
Общий поток : 1873 Кбит/сек
Программа кодирования : VirtualDubMod 1.5.10.3 | www.virtualdub-fr.org || (build 2550/release)
Библиотека кодирования : VirtualDubMod build 2550/release

Видео
Идентификатор : 0
Формат : MPEG-4 Visual
Профиль формата : Advanced Simple@L5
Параметр BVOP формата : 1
Параметр QPel формата : Нет
Параметр GMC формата : Без точки перехода
Параметр матрицы формата : Default (H.263)
Идентификатор кодека : XVID
Идентификатор кодека/Подсказка : XviD
Продолжительность : 4 м. 3 с.
Битрейт : 1415 Кбит/сек
Ширина : 720 пикселей
Высота : 400 пикселей
Соотношение сторон : 16:9
Частота кадров : 25,000 кадров/сек
Цветовое пространство : YUV
Субдискретизация насыщенности : 4:2:0
Битовая глубина : 8 бит
Тип развёртки : Прогрессивная
Метод сжатия : С потерями
Бит/(Пиксели*Кадры) : 0.197
Размер потока : 41,0 Мбайт (76%)
Библиотека кодирования : XviD 1.2.1 (UTC 2008-12-04)

Аудио
Идентификатор : 1
Формат : AC-3
Формат/Информация : Audio Coding 3
Расширение режима : CM (complete main)
Идентификатор кодека : 2000
Продолжительность : 4 м. 3 с.
Вид битрейта : Постоянный
Битрейт : 448 Кбит/сек
Каналы : 6 каналов
Расположение каналов : Front: L C R, Side: L R, LFE
Частота : 48,0 КГц
Битовая глубина : 16 бит
Метод сжатия : С потерями
Задержка видео : 24 мс.
Размер потока : 13,0 Мбайт (24%)
Выравнивание : Разделение по промежуткам
Продолжительность промежутка : 40 мс. (1,00 видеокадр)
Время предзагрузки промежутка : 500 мс.

Общее
Полное имя : D:Гадкий Я. Мини-фильмы. Миньоны. Серия 05.avi
Формат : AVI
Формат/Информация : Audio Video Interleave
Размер файла : 59,3 Мбайт
Продолжительность : 4 м. 20 с.
Общий поток : 1908 Кбит/сек
Программа кодирования : VirtualDubMod 1.5.10.3 | www.virtualdub-fr.org || (build 2550/release)
Библиотека кодирования : VirtualDubMod build 2550/release

Видео
Идентификатор : 0
Формат : MPEG-4 Visual
Профиль формата : Advanced Simple@L5
Параметр BVOP формата : 1
Параметр QPel формата : Нет
Параметр GMC формата : Без точки перехода
Параметр матрицы формата : Default (H.263)
Идентификатор кодека : XVID
Идентификатор кодека/Подсказка : XviD
Продолжительность : 4 м. 20 с.
Битрейт : 1450 Кбит/сек
Ширина : 720 пикселей
Высота : 400 пикселей
Соотношение сторон : 16:9
Частота кадров : 25,000 кадров/сек
Цветовое пространство : YUV
Субдискретизация насыщенности : 4:2:0
Битовая глубина : 8 бит
Тип развёртки : Прогрессивная
Метод сжатия : С потерями
Бит/(Пиксели*Кадры) : 0.201
Размер потока : 45,1 Мбайт (76%)
Библиотека кодирования : XviD 1.2.1 (UTC 2008-12-04)

Аудио
Идентификатор : 1
Формат : AC-3
Формат/Информация : Audio Coding 3
Расширение режима : CM (complete main)
Идентификатор кодека : 2000
Продолжительность : 4 м. 20 с.
Вид битрейта : Постоянный
Битрейт : 448 Кбит/сек
Каналы : 6 каналов
Расположение каналов : Front: L C R, Side: L R, LFE
Частота : 48,0 КГц
Битовая глубина : 16 бит
Метод сжатия : С потерями
Задержка видео : 16 мс.
Размер потока : 13,9 Мбайт (23%)
Выравнивание : Разделение по промежуткам
Продолжительность промежутка : 40 мс. (1,00 видеокадр)
Время предзагрузки промежутка : 500 мс.

Общее
Полное имя : D:Гадкий Я. Мини-фильмы. Миньоны. Серия 06.avi
Формат : AVI
Формат/Информация : Audio Video Interleave
Размер файла : 81,6 Мбайт
Продолжительность : 4 м. 2 с.
Общий поток : 2826 Кбит/сек
Программа кодирования : VirtualDubMod 1.5.10.3 | www.virtualdub-fr.org || (build 2550/release)
Библиотека кодирования : VirtualDubMod build 2550/release

Видео
Идентификатор : 0
Формат : MPEG-4 Visual
Профиль формата : Advanced Simple@L5
Параметр BVOP формата : 1
Параметр QPel формата : Нет
Параметр GMC формата : Без точки перехода
Параметр матрицы формата : Default (H.263)
Идентификатор кодека : XVID
Идентификатор кодека/Подсказка : XviD
Продолжительность : 4 м. 2 с.
Битрейт : 2368 Кбит/сек
Ширина : 720 пикселей
Высота : 400 пикселей
Соотношение сторон : 16:9
Частота кадров : 25,000 кадров/сек
Цветовое пространство : YUV
Субдискретизация насыщенности : 4:2:0
Битовая глубина : 8 бит
Тип развёртки : Прогрессивная
Метод сжатия : С потерями
Бит/(Пиксели*Кадры) : 0.329
Размер потока : 68,3 Мбайт (84%)
Библиотека кодирования : XviD 1.2.1 (UTC 2008-12-04)

Аудио
Идентификатор : 1
Формат : AC-3
Формат/Информация : Audio Coding 3
Расширение режима : CM (complete main)
Идентификатор кодека : 2000
Продолжительность : 4 м. 2 с.
Вид битрейта : Постоянный
Битрейт : 448 Кбит/сек
Каналы : 6 каналов
Расположение каналов : Front: L C R, Side: L R, LFE
Частота : 48,0 КГц
Битовая глубина : 16 бит
Метод сжатия : С потерями
Размер потока : 12,9 Мбайт (16%)
Выравнивание : Разделение по промежуткам
Продолжительность промежутка : 40 мс. (1,00 видеокадр)
Время предзагрузки промежутка : 500 мс.



piratbit.pw



Скачать Гадкий Я: Мини-фильмы. Миньоны через торрент http://pic.kartinco.top/images/6/2bx28.jpg Скачать фильм Гадкий Я: Мини-фильмы. Миньоны через торрент бесплантно в хорошем качестве Описание: Жёлтые коротышки, служат армией и помощниками для Грю. Хотя и понимают человеческую речь, говорить по-человечески не умеют, но ... 9.9 10 69
Info! Золотая раздача, скачанное не засчитывается.
Торрент: Зарегистрирован [2014-01-13 05:58] · скачан: 1 577 раз
Статус: √ проверено
Размер: 341 MB
Как cкачать? Как скачать Гадкий Я: Мини-фильмы. Миньоны через торрент | qTorrent

28-11-2019 20:33  

Отключить всю рекламу на сайте

13-01-2014 06:48 Гадкий Я: Мини-фильмы. Миньоны Скачать торрент  

Побольше таких прикольных чуваков,и жизнь станет позитивнееpiratbit.pw



13-01-2014 10:20 Гадкий Я: Мини-фильмы. Миньоны Скачать торрент  

Спасибо за раздачу!
Мы с дочкой в восторге.piratbit.pw



13-01-2014 22:08 Гадкий Я: Мини-фильмы. Миньоны Скачать торрент  

Меня чет тоже прикольнули эти жёлтые коротышки! piratbit.pw



15-01-2014 17:39 Гадкий Я: Мини-фильмы. Миньоны Скачать торрент  

Миван писал(а):

Побольше таких прикольных чуваков,и жизнь станет позитивнее

yes javascript:emoticon(':dancee:') yes yespiratbit.pw



    Дорогой пользователь! Огромная просьба, поблагодарите релизера, оцените раздачу и оставьте свои комментарий, если Вы скачали Гадкий Я: Мини-фильмы. Миньоны через торрент бесплатно! Внесите свою лепту в развитие PiratBit!
    Комментировать посты могут только пользователи прошедшие не сложную регистрацию
    Показать сообщения:    

    Гадкий Я: Мини-фильмы. Миньоны через торрент
    Скачать бесплатно Гадкий Я: Мини-фильмы. Миньоны
    Гадкий Я: Мини-фильмы. Миньоны скачать торрент
    Гадкий Я: Мини-фильмы. Миньоны смотреть онлайн
    Cкачать фильм Гадкий Я: Мини-фильмы. Миньоны бесплатно
    Гадкий Я: Мини-фильмы. Миньоны скачать торрент в хорошем качестве
    Гадкий Я: Мини-фильмы. Миньоны смотреть онлайн бесплатно в хорошем качестве


    Вы не можете начинать темы
    Вы не можете отвечать на сообщения
    Вы не можете редактировать свои сообщения
    Вы не можете удалять свои сообщения
    Вы не можете голосовать в опросах
    Вы не можете прикреплять файлы к сообщениям
    Вы можете скачивать файлы