Marvel's Avengers Deluxe Edition (супер цена) 159р. Внимание количество ограничено!!!

2 сезон

iTunes

iTunes

1

iTunes

iTunes

iTunes

WEBRip

iTunes

30
pack

Новость дня

ВАЖНО

!!Акция!!

Alien_RageХит недели

RePack

Horizon Zero Dawn

ИГРА 18+

pack

RePack

jed

!!Акция!!

Alien_Rage

RePack

fifa19

RePack

Assassins Creed: Odyssey

RePack

NEED FOR SPEED™ PAYBACK

4 сезон

9 сезон

Бесстыжие 9 сезон

Все сериалы

все сериалы на PB.wtf

RePack

FAR CRY 5
  

Три мушкетера (Сергей Жигунов) [ 2013 , Россия , приключения , BDRip 1080p ] piratbit.pw

Три мушкетера через торрент piratbit.pw

Размер: 12.25 GB | Добавлен: 6 лет 8 мес. назад | Торрент скачан:136 раз
Скачать  

11-01-2014 11:35 Три мушкетера Скачать торрент  


Три мушкетера

«Всё за любовь!»

  • Год выпуска:2013
  • Страна:Россия
  • Жанр:приключения
  • Продолжительность: 02:03:30
  • Перевод:Не требуется

  • Субтитры: Нет
    • Режиссер:Сергей Жигунов
    • Сценарий: Сергей Жигунов, Андрей Житков
    • Продюсер: Игорь Куйда, Сергей Жигунов, Вадим Швец, Татьяна Прожико, Катерина Ульрихова

  • В ролях:Риналь Мухаметов (д'Артаньян), Юрий Чурсин (Атос), Алексей Макаров (Портос), Павел Баршак (Арамис), Екатерина Вилкова (миледи), Анна Старшенбаум (Констанция Бонасье), Василий Лановой (кардинал Ришелье), Филипп Янковский (Людовик XIII), Константин Лавроненко (герцог Бекингэм), Мария Миронова (Анна Австрийская), Владимир Зайцев (Рошфор), Александр Лыков (де Тревиль)
    • Описание:
      «Три мушкетера» - это история о юном гасконце Д’Артаньяне, который, не познав всех радостей любви, оказывается втянут в водоворот политических интриг королевского двора Людовика XIII. В роте королевских мушкетеров Де Тревиля он находит себе верных друзей Атоса, Портоса и Арамиса. Мушкетеры настолько поражены кипучей энергией гасконца и его умением находить неприятности, что принимают самое живое участие не только в многочисленных стычках с гвардейцами кардинала, но и в личной судьбе Д’Артаньяна.
      Благодаря друзьям Д’Артаньян находит свою первую любовь - Констанцию Бонасье и ввязывается в опаснейшую историю с подвесками Королевы. Тонкий и дальновидный политик кардинал Ришелье и его подручные Рошфор и Миледи обретают в лице Д’Артаньяна опаснейшего врага. Во имя любви он готов на самые отчаянные подвиги. На пути Д’Артаньяна немало опасных соблазнов и искушений. Но он их все преодолеет, не предав своей дружбы и любви!

    Мировая премьера:14 ноября 2013 Бюджет:$12 000 000
    • Качество:BDRip- 1080p
    • Формат:MKV
    • Видео кодек: AVC
    • Аудио кодек:DTS
    • Видео: AVC, 1920x1080 (16:9), 12411 kbps, 24 fps, 0,249 bpp
    • Аудио: DTS / 5.1 / 48 kHz / 1510 kbps / 24 bit

    Код:

    General
    Unique ID                                : 243699516945508493177495423411573483006 (0xB756D1D8A206A9CB801536432683E5FE)
    Complete name                            : C:UsersVoron4ikDownloadsThRee.Musketera.2013.O.BDRip.1080p.mkv
    Format                                   : Matroska
    Format version                           : Version 2
    File size                                : 12.3 GiB
    Duration                                 : 2h 3mn
    Overall bit rate                         : 14.2 Mbps
    Encoded date                             : UTC 2014-01-10 18:44:38
    Writing application                      : mkvmerge v5.8.0 ('No Sleep / Pillow') built on Sep  2 2012 15:37:04
    Writing library                          : libebml v1.2.3 + libmatroska v1.3.0

    Video
    ID                                       : 1
    Format                                   : AVC
    Format/Info                              : Advanced Video Codec
    Format profile                           : High@L4.1
    Format settings, CABAC                   : Yes
    Format settings, ReFrames                : 4 frames
    Codec ID                                 : V_MPEG4/ISO/AVC
    Duration                                 : 2h 3mn
    Bit rate                                 : 12.4 Mbps
    Width                                    : 1 920 pixels
    Height                                   : 1 080 pixels
    Display aspect ratio                     : 16:9
    Frame rate                               : 24.000 fps
    Color space                              : YUV
    Chroma subsampling                       : 4:2:0
    Bit depth                                : 8 bits
    Scan type                                : Progressive
    Bits/(Pixel*Frame)                       : 0.249
    Stream size                              : 10.7 GiB (87%)
    Writing library                          : x264 core 140 r2377+40 929f149 tMod [8-bit@all X86_64]
    Encoding settings                        : cabac=1 / ref=2 / deblock=1:0:0 / analyse=0x3:0x133 / me=hex / subme=2 / psy=1 / fade_compensate=0.00 / psy_rd=1.00:0.00 / mixed_ref=1 / me_range=16 / chroma_me=1 / trellis=2 / 8x8dct=1 / cqm=0 / deadzone=21,11 / fast_pskip=0 / chroma_qp_offset=0 / threads=12 / lookahead_threads=6 / sliced_threads=0 / nr=0 / decimate=1 / interlaced=0 / bluray_compat=0 / constrained_intra=0 / fgo=0 / bframes=2 / b_pyramid=2 / b_adapt=2 / b_bias=0 / direct=1 / weightb=1 / open_gop=0 / weightp=2 / keyint=240 / keyint_min=24 / scenecut=40 / intra_refresh=0 / rc=crf / mbtree=0 / crf=20.7000 / qcomp=0.60 / qpmin=0:0:0 / qpmax=69:69:69 / qpstep=4 / ip_ratio=1.40 / pb_ratio=1.30 / aq=1:0.80 / aq-sensitivity=10.00 / aq-factor=1.00:1.00:1.00 / aq2=0 / aq3=0
    Language                                 : English
    Default                                  : Yes
    Forced                                   : No

    Audio
    ID                                       : 2
    Format                                   : DTS
    Format/Info                              : Digital Theater Systems
    Codec ID                                 : A_DTS
    Duration                                 : 2h 3mn
    Bit rate mode                            : Constant
    Bit rate                                 : 1 510 Kbps
    Channel(s)                               : 6 channels
    Channel positions                        : Front: L C R, Side: L R, LFE
    Sampling rate                            : 48.0 KHz
    Bit depth                                : 24 bits
    Compression mode                         : Lossy
    Stream size                              : 1.30 GiB (11%)
    Default                                  : Yes
    Forced                                   : No


    Скриншоты:

    Трейлеры к фильмам [2014]

    © Оформление by Vetal
    piratbit.pw



  • Скачать Три мушкетера через торрент http://pic.kartinco.top/images/6/ordi9.jpg Скачать фильм Три мушкетера через торрент бесплантно в хорошем качестве Описание:«Три мушкетера» - это история о юном гасконце Д’Артаньяне, который, не познав всех радостей любви, оказывается втянут в водоворот ... 8.4 10 8
    Info! Золотая раздача, скачанное не засчитывается.
    Торрент: Зарегистрирован [2014-01-11 11:35] · скачан: 136 раз
    Статус: √ проверено
    Размер: 12.25 GB
    Как cкачать? Как скачать Три мушкетера через торрент | qTorrent

    % Раздел Тема Автор DL S | L
    Фильмы (Blu-ray, BD-Remux, HDDVD) [ 21.91 GB ] Сексуальные трех мушкетеров / Die Sex-Abenteuer der drei Musketiere / The Sex-Adventures of the three Musketeers [1971 эротика BDRemux 1080p] [AVO] killermax2013 Скачать
    1 | 0
    Фильмы с авторской озвучкой [ 1.46 GB ] Д'Артаньян и три мушкетера. 300 лет спустя / Реальные кабаны / Wild Hogs [2007 Смешной перевод HDRip] [AVO] killermax2013 Скачать
    1 | 0
    Фильмы до 2000 г. [ 3.94 GB ] Три мушкетера / Les trois mousquetaires [1961 исторический Telesync > DVD] [Советская прокатная копия] killermax2013 Скачать
    2 | 0
    Классика зарубежного кино [ 2.43 GB ] Три мушкетера / The Three Musketeers [1948 DVDRip-AVC ] от ExKinoRay dumbia Скачать
    1 | 0
    Иностранные мультфильмы [ 1.37 GB ] Барби и три мушкетера / Barbie and the Three Musketeers [2009 мультфильм DVDRip] L_E_X Скачать
    1 | 0
    Наши фильмы (HD, WEB-DL 720p, 1080p) [ 14.41 GB ] Д`Артаньян и три мушкетёра [1979 Музыкальный HDTV1080p] Оригинал Бумер Скачать
    1 | 0
    Наши сериалы [ 5.18 GB ] Три мушкетера / Сезон: 1 / Серии:10 из 10 [2013 экранизация SATRip] Ворон Скачать
    1 | 0

    28-11-2019 20:33  

    Отключить всю рекламу на сайте

    11-01-2014 12:40 Три мушкетера Скачать торрент  

    на букву х , но не хорошо sarcasticpiratbit.pw



      Дорогой пользователь! Огромная просьба, поблагодарите релизера, оцените раздачу и оставьте свои комментарий, если Вы скачали Три мушкетера через торрент бесплатно! Внесите свою лепту в развитие PiratBit!
      Комментировать посты могут только пользователи прошедшие не сложную регистрацию
      Показать сообщения:    

      Три мушкетера через торрент
      Скачать бесплатно Три мушкетера
      Три мушкетера скачать торрент
      Три мушкетера смотреть онлайн
      Cкачать фильм Три мушкетера бесплатно
      Три мушкетера скачать торрент в хорошем качестве
      Три мушкетера смотреть онлайн бесплатно в хорошем качестве


      Вы не можете начинать темы
      Вы не можете отвечать на сообщения
      Вы не можете редактировать свои сообщения
      Вы не можете удалять свои сообщения
      Вы не можете голосовать в опросах
      Вы не можете прикреплять файлы к сообщениям
      Вы можете скачивать файлы