1 сезон

1 сезон

iTunes

1

КиноПоиск HD

Кинопоиск HD

iTunes

13

1 сезон

RePack

30

Ultimate

ВАЖНО

ИГРА 18+

pack

RePack

MK11
pack

Легкие деньги

RePack

jed

RePack

fifa19

RePack

RDR2

RePack

NEED FOR SPEED™ PAYBACK

4 сезон

9 сезон

Бесстыжие 9 сезон

Все сериалы

все сериалы на PB.wtf

RePack

FAR CRY 5
  
Magnet ссылка

История двух сестер / Janghwa, Hongryeon / A Tale of Two Sisters (Ким Чжи Ун) [2003 г., ужасы, триллер, драма, детектив, BDRip 720p, Авторский (Юрий Живов)] piratbit.pw

История двух сестер через торрент piratbit.pw

Размер: 8.1 GB | Добавлен: 7 лет 3 мес. назад | Торрент скачан:22 раза
Скачать  

06-01-2014 19:17 История двух сестер Скачать торрент  

История двух сестер / Janghwa, Hongryeon / A Tale of Two Sisters

Год выпуска: 2003
Страна: Корея Южная
Жанр: ужасы, триллер, драма, детектив
Продолжительность: 01:54:33
Перевод: Авторский (Юрий Живов)
Субтитры: English

Режиссер: Ким Чжи Ун
Продюссер: Джунг-Ван Ох, Ки-Мин Ох, Джэ-вон Чои
Сценарий: Ким Чжи Ун
Премьера в мире: 13 июня 2003

IMDB 7.30 (33 025)


В ролях: Ким Кап Су, Ём Чон А, Им Су Чон, Мун Гын Ён, Сенг-Би Ли

Описание: Две сестры возвращаются в дом своего отца и мачехи после продолжительного пребывания в психиатрической лечебнице. Ситуация в доме носит напряженный характер, так как состояние мачехи весьма несбалансированное. Вскоре в доме начинают происходить странные вещи, сёстрам кажется, что внутри есть кто-то еще...

Качество: BDRip 720p
Формат: MKV
Видео кодек: AVC
Аудио кодек: AC3 / DTS
Видео: MPEG-4 AVC ~8425 Kbps, 1280х720,23,976 fps,16:9, Bits/(Pixel*Frame): 0.381
Аудио#1: Korean DTS 5.1 48 kHz 1509 kbps 16-bit;
Аудио#2: Russian AC-3 2.0 48 kHz 192 kbps - закадровый (авторский одноголосый, Юрий Живов).
General
Unique ID : 208069529028097268106060682786709202793 (0x9C88BBD049C978A5A45D3CA849B06769)
Complete name : /etc/seedbox/home/eruslannr/data/A.Tale.of.Two.Sisters.2003.720p.mkv
Format : Matroska
Format version : Version 4 / Version 2
File size : 8.10 GiB
Duration : 1h 54mn
Overall bit rate : 10.1 Mbps
Encoded date : UTC 2014-01-06 12:35:05
Writing application : mkvmerge v6.5.0 ('Isn't she lovely') built on Oct 20 2013 12:50:05
Writing library : libebml v1.3.0 + libmatroska v1.4.1

Video
ID : 1
Format : AVC
Format/Info : Advanced Video Codec
Format profile : High@L4.1
Format settings, CABAC : Yes
Format settings, ReFrames : 9 frames
Codec ID : V_MPEG4/ISO/AVC
Duration : 1h 54mn
Bit rate : 8 425 Kbps
Width : 1 280 pixels
Height : 720 pixels
Display aspect ratio : 16:9
Frame rate mode : Constant
Frame rate : 23.976 fps
Color space : YUV
Chroma subsampling : 4:2:0
Bit depth : 8 bits
Scan type : Progressive
Bits/(Pixel*Frame) : 0.381
Stream size : 6.58 GiB (81%)
Writing library : x264 core 130 r2273 b3065e6
Encoding settings : cabac=1 / ref=9 / deblock=1:-3:-3 / analyse=0x3:0x133 / me=umh / subme=11 / psy=1 / psy_rd=1.05:0.05 / mixed_ref=1 / me_range=32 / chroma_me=1 / trellis=2 / 8x8dct=1 / cqm=0 / deadzone=21,11 / fast_pskip=0 / chroma_qp_offset=-3 / threads=12 / lookahead_threads=3 / sliced_threads=0 / nr=0 / decimate=1 / interlaced=0 / bluray_compat=0 / constrained_intra=0 / bframes=10 / b_pyramid=2 / b_adapt=2 / b_bias=0 / direct=3 / weightb=1 / open_gop=0 / weightp=2 / keyint=250 / keyint_min=23 / scenecut=40 / intra_refresh=0 / rc_lookahead=60 / rc=2pass / mbtree=1 / bitrate=8425 / ratetol=1.0 / qcomp=0.60 / qpmin=0 / qpmax=69 / qpstep=4 / cplxblur=20.0 / qblur=0.5 / ip_ratio=1.40 / aq=1:0.60
Language : English
Default : Yes
Forced : No

Audio #1
ID : 2
Format : DTS
Format/Info : Digital Theater Systems
Mode : 16
Format settings, Endianness : Big
Codec ID : A_DTS
Duration : 1h 54mn
Bit rate mode : Constant
Bit rate : 1 509 Kbps
Channel count : 6 channels
Channel positions : Front: L C R, Side: L R, LFE
Sampling rate : 48.0 KHz
Bit depth : 16 bits
Compression mode : Lossy
Stream size : 1.21 GiB (15%)
Language : Korean
Default : No
Forced : No

Audio #2
ID : 3
Format : AC-3
Format/Info : Audio Coding 3
Mode extension : CM (complete main)
Format settings, Endianness : Big
Codec ID : A_AC3
Duration : 1h 54mn
Bit rate mode : Constant
Bit rate : 192 Kbps
Channel count : 2 channels
Channel positions : Front: L R
Sampling rate : 48.0 KHz
Bit depth : 16 bits
Compression mode : Lossy
Stream size : 157 MiB (2%)
Language : Russian
Default : Yes
Forced : No

Menu
00:00:00.000 : :Chapter 01
00:05:57.190 : :Chapter 02
00:11:21.681 : :Chapter 03
00:17:44.605 : :Chapter 04
00:23:18.271 : :Chapter 05
00:33:10.363 : :Chapter 06
00:40:56.579 : :Chapter 07
00:48:56.516 : :Chapter 08
00:53:25.619 : :Chapter 09
01:04:04.757 : :Chapter 10
01:15:18.680 : :Chapter 11
01:18:50.976 : :Chapter 12
01:24:27.645 : :Chapter 13
01:31:09.464 : :Chapter 14
01:36:56.060 : :Chapter 15
01:46:34.888 : :Chapter 16
01:54:33.157 : :Chapter 17
piratbit.pw



Скачать История двух сестер через торрент http://i2.imageban.ru/out/2014/01/06/97ac86b46d7e4ab3fc4798351a36b9d3.png Скачать фильм История двух сестер через торрент бесплантно в хорошем качестве Описание: Две сестры возвращаются в дом своего отца и мачехи после продолжительного пребывания в психиатрической лечебнице. Ситуация в доме ... 9.7 10 7
Info! Золотая раздача, скачанное не засчитывается.
Торрент: Зарегистрирован [2014-01-06 19:17] · скачан: 22 раз
Статус: √ проверено
Размер: 8.1 GB
Как cкачать? Как скачать История двух сестер через торрент | UTorrent

28-11-2019 20:33  

Отключить всю рекламу на сайте

09-01-2014 18:18 История двух сестер Скачать торрент  

Никто не смотрел что-ли??? Люди, отпишитесь кто смотрел!piratbit.pw



    Дорогой пользователь! Огромная просьба, поблагодарите релизера, оцените раздачу и оставьте свои комментарий, если Вы скачали История двух сестер через торрент бесплатно! Внесите свою лепту в развитие PiratBit!
    Комментировать посты могут только пользователи прошедшие не сложную регистрацию
    Показать сообщения:    

    История двух сестер через торрент
    Скачать бесплатно История двух сестер
    История двух сестер скачать торрент
    История двух сестер смотреть онлайн
    Cкачать фильм История двух сестер бесплатно
    История двух сестер скачать торрент в хорошем качестве
    История двух сестер смотреть онлайн бесплатно в хорошем качестве


    Вы не можете начинать темы
    Вы не можете отвечать на сообщения
    Вы не можете редактировать свои сообщения
    Вы не можете удалять свои сообщения
    Вы не можете голосовать в опросах
    Вы не можете прикреплять файлы к сообщениям
    Вы можете скачивать файлы