1 сезон

1 сезон

iTunes

1

КиноПоиск HD

Кинопоиск HD

iTunes

13

1 сезон

RePack

30

Новинка

ВАЖНО

ИГРА 18+

pack

RePack

MK11
pack

Легкие деньги

RePack

jed

RePack

fifa19

RePack

RDR2

RePack

NEED FOR SPEED™ PAYBACK

4 сезон

9 сезон

Бесстыжие 9 сезон

Все сериалы

все сериалы на PB.wtf

RePack

FAR CRY 5
  
Magnet ссылка

Рейд / The Raid: Redemption / Serbuan maut (Гарет Эванс) [2011, Боевик, триллер, криминал, BDRip-AVC] [AVO] (Ю.Сербин) piratbit.pw

Рейд через торрент piratbit.pw

Размер: 1.46 GB | Добавлен: 7 лет 3 мес. назад | Торрент скачан:1226 раз
Скачать  

05-01-2014 10:55 Рейд Скачать торрент  

« Спецназ против мафии. Брат против брата. 30 этажей ада »
Год выхода: 2011
Страна: США, Индонезия
Студия: Pt. Merantau Films / XYZ Films
Жанр: Боевик, триллер, криминал
Продолжительность: 01:40:45
Перевод: Авторский (одноголосый, закадровый) [Ю.Сербин]

Режиссер: Гарет Эванс

В ролях: Ико Ювайс, Джо Таслим, Дони Аламсях, Яян Рухьян, Пьер Грюно, Рэй Сахетапи, Тегар Сатрия, Ианг Дармаван, Эка «Пиранья» Рахмадия, Верди Солайман

Описание: Отряд спецназовцев получает задание проникнуть в многоэтажный дом, расположенный в самом сердце трущоб Джакарты, и арестовать обосновавшегося там наркобарона, которого охраняет целая армия вооруженных до зубов головорезов. Операцию нужно провести без лишнего шума, но нелепая случайность нарушает планы служителей закона. Теперь бойцам негде спрятаться и некуда бежать. Перед ними 30 этажей ада, где смертью грозит каждый неверный шаг. Война по правилам кончилась. Выживает сильнейший!

Качество: BDRip-AVC [Рип с Blu-Ray]
Формат: MKV
Видео кодек: AVC (H.264)
Аудио кодек: АС-3
Видео: AVC, 952 х 512, 24,000 кадр/сек, 1628 Кбит/сек
Аудио: АС-3, 448 Кбит/сек, 6 каналов, 48,0 КГц
General
Unique ID : 175697817651337200213184224182305657650 (0x842E2B37A507437288D6076E4D919332)
Complete name : E:INTERNETРейд-Serbuan.maut.(2011).[H.264].BDRip.mkv
Format : Matroska
File size : 1.46 GiB
Duration : 1h 40mn
Overall bit rate : 2 076 Kbps
Encoded date : UTC 2012-07-31 13:34:11
Writing application : mkvmerge v5.6.0 ('Kenya Kane') built on May 27 2012 16:44:04
Writing library : libebml v1.2.3 + libmatroska v1.3.0

Video
ID : 1
Format : AVC
Format/Info : Advanced Video Codec
Format profile : High@L4.0
Format settings, CABAC : Yes
Format settings, ReFrames : 13 frames
Codec ID : V_MPEG4/ISO/AVC
Duration : 1h 40mn
Bit rate : 1 628 Kbps
Width : 952 pixels
Height : 512 pixels
Display aspect ratio : 1.859
Frame rate mode : Variable
Frame rate : 24.000 fps
Color space : YUV
Chroma subsampling : 4:2:0
Bit depth : 8 bits
Scan type : Progressive
Bits/(Pixel*Frame) : 0.139
Stream size : 1.12 GiB (76%)
Writing library : x264 core 116 r2019M 9cc407d
Encoding settings : cabac=1 / ref=14 / deblock=1:-3:-2 / analyse=0x3:0x133 / me=umh / subme=10 / psy=1 / psy_rd=1.00:0.00 / mixed_ref=1 / me_range=32 / chroma_me=1 / trellis=2 / 8x8dct=1 / cqm=0 / deadzone=21,11 / fast_pskip=0 / chroma_qp_offset=-2 / threads=8 / sliced_threads=0 / nr=0 / decimate=1 / interlaced=0 / bluray_compat=0 / constrained_intra=0 / bframes=13 / b_pyramid=1 / b_adapt=2 / b_bias=0 / direct=3 / weightb=1 / open_gop=0 / weightp=2 / keyint=240 / keyint_min=24 / scenecut=40 / intra_refresh=0 / rc_lookahead=100 / rc=2pass / mbtree=1 / bitrate=1628 / ratetol=1.0 / qcomp=0.70 / qpmin=10 / qpmax=51 / qpstep=4 / cplxblur=20.0 / qblur=0.5 / vbv_maxrate=20000 / vbv_bufsize=25000 / nal_hrd=none / ip_ratio=1.35 / aq=1:0.80
Language : English

Audio
ID : 2
Format : AC-3
Format/Info : Audio Coding 3
Mode extension : CM (complete main)
Codec ID : A_AC3
Duration : 1h 40mn
Bit rate mode : Constant
Bit rate : 448 Kbps
Channel(s) : 6 channels
Channel positions : Front: L C R, Side: L R, LFE
Sampling rate : 48.0 KHz
Bit depth : 16 bits
Compression mode : Lossy
Stream size : 323 MiB (22%)
Title : AVO [Ю. Сербин]
Language : Russian
piratbit.pw



Скачать Рейд через торрент https://pic.kartinco.top/images/6/wu6tg.jpg Скачать фильм Рейд через торрент бесплантно в хорошем качестве Описание: Отряд спецназовцев получает задание проникнуть в многоэтажный дом, расположенный в самом сердце трущоб Джакарты, и арестовать ... 9.8 10 33
Info! Золотая раздача, скачанное не засчитывается.
Торрент: Зарегистрирован [2014-01-05 10:55] · скачан: 1 226 раз
Статус: √ проверено
Размер: 1.46 GB
Как cкачать? Как скачать Рейд через торрент | UTorrent

% Раздел Тема Автор DL S | L
Фильмы (Blu-ray, BD-Remux, HDDVD) [ 29.88 GB ] Рейд / The Raid: Redemption / Serbuan maut [2011 BD-Remux DUB ] Зайчина Скачать
1 | 0

28-11-2019 20:33  

Отключить всю рекламу на сайте

05-01-2014 13:42 Рейд Скачать торрент  

хорошее и интересное кино yespiratbit.pw



05-01-2014 14:07 Рейд Скачать торрент  

commander222 писал(а):

хорошее и интересное кино yes

согласен вторая часть в марте выходитpiratbit.pw



30-03-2014 10:27 Рейд Скачать торрент  

Посмотрел в кино вторую часть, это что то!!!!! всем советуюpiratbit.pw



    Дорогой пользователь! Огромная просьба, поблагодарите релизера, оцените раздачу и оставьте свои комментарий, если Вы скачали Рейд через торрент бесплатно! Внесите свою лепту в развитие PiratBit!
    Комментировать посты могут только пользователи прошедшие не сложную регистрацию
    Показать сообщения:    

    Рейд через торрент
    Скачать бесплатно Рейд
    Рейд скачать торрент
    Рейд смотреть онлайн
    Cкачать фильм Рейд бесплатно
    Рейд скачать торрент в хорошем качестве
    Рейд смотреть онлайн бесплатно в хорошем качестве


    Вы не можете начинать темы
    Вы не можете отвечать на сообщения
    Вы не можете редактировать свои сообщения
    Вы не можете удалять свои сообщения
    Вы не можете голосовать в опросах
    Вы не можете прикреплять файлы к сообщениям
    Вы можете скачивать файлы