Marvel's Avengers Deluxe Edition (супер цена) 159р. Внимание количество ограничено!!!

2 сезон

iTunes

iTunes

1

iTunes

iTunes

iTunes

WEBRip

iTunes

30
pack

Новость дня

ВАЖНО

!!Акция!!

Alien_RageХит недели

RePack

Horizon Zero Dawn

ИГРА 18+

pack

RePack

jed

!!Акция!!

Alien_Rage

RePack

fifa19

RePack

Assassins Creed: Odyssey

RePack

NEED FOR SPEED™ PAYBACK

4 сезон

9 сезон

Бесстыжие 9 сезон

Все сериалы

все сериалы на PB.wtf

RePack

FAR CRY 5
  

Иван Васильевич меняет профессию (Леонид Гайдай) [1973 г., фантастика, комедия, приключения, BDRip 1080p] piratbit.pw

Иван Васильевич меняет профессию через торрент piratbit.pw

Размер: 12.63 GB | Добавлен: 6 лет 9 мес. назад | Торрент скачан:171 раз
Скачать  

18-12-2013 14:19 Иван Васильевич меняет профессию Скачать торрент  

Иван Васильевич меняет профессию
Год выпуска: 1973
Страна: СССР
Жанр: фантастика, комедия, приключения,
Продолжительность: 01:31:39
Перевод: Оригинал
Субтитры: Английские

Режиссер: Леонид Гайдай

В ролях: Александр Демьяненко, Юрий Яковлев, Леонид Куравлёв, Наталья Крачковская, Савелий Крамаров, Наталья Селезнёва, Владимир Этуш, Михаил Пуговкин, Сергей Филиппов, Наталья Кустинская,

Описание: Инженер-изобретатель Тимофеев сконструировал машину времени, которая соединила его квартиру с далеким шестнадцатым веком - точнее, с палатами государя Ивана Грозного. Туда-то и попадают тезка царя пенсионер-общественник Иван Васильевич Бунша и квартирный вор Жорж Милославский.

На их место в двадцатом веке «переселяется» великий государь. Поломка машины приводит ко множеству неожиданных и забавных событий...

Качество: BDRip 1080p
Формат: MKV
Видео кодек: H.264
Аудио кодек: AC3
Видео: MPEG-4 AVC (1480x1080), 18.000 Кбит/с, 23.976 кадра/сек
Аудио#1: AC-3, 1 ch,224kbps (Rus) 48.0 KHz Оригинал
Аудио#2: DTS- 6 ch 1509 kbps (Rus) 48.0 KHz Оригинал
скриншот   скриншот   скриншот  

Тип потока: Видео
Длительность: 01:31:39
Кодек: AVC
Кодек/описание: Advanced Video Codec
Кодек/профиль: High@L4.1
Кодек/ID: V_MPEG4/ISO/AVC
Кодек/CABAC: Yes
Кодек/ReFrames: 5 frames
Размеры изображения: 1480 x 1080 (1.370)
Частота кадров: 23.976 fps
Частота кадров/тип: Constant
Размер потока: 11.3 GiB (89%)
Битрейт: 18.0 Mbps
Библиотека кодирования: x264 core 140 r2377+40 929f149 tMod [8-bit@4:2:0 X86_64]
Цветовое пространство: YUV
Тип развёртки: Progressive
Глубина: 8 bits
Настройки кодирования: cabac=1 / ref=5 / deblock=1:-2:-2 / analyse=0x3:0x113 / me=umh / subme=11 / psy=1 / fade_compensate=0.00 / psy_rd=0.80:0.00 / mixed_ref=1 / me_range=48 / chroma_me=1 / trellis=2 / 8x8dct=1 / cqm=0 / deadzone=21,11 / fast_pskip=0 / chroma_qp_offset=-2 / threads=12 / lookahead_threads=1 / sliced_threads=0 / nr=0 / decimate=1 / interlaced=0 / bluray_compat=0 / constrained_intra=0 / fgo=0 / bframes=6 / b_pyramid=2 / b_adapt=2 / b_bias=0 / direct=3 / weightb=1 / open_gop=0 / weightp=2 / keyint=250 / keyint_min=23 / scenecut=40 / intra_refresh=0 / rc_lookahead=120 / rc=2pass / mbtree=1 / bitrate=18000 / ratetol=1.0 / qcomp=0.75 / qpmin=0:0:0 / qpmax=69:69:69 / qpstep=4 / cplxblur=20.0 / qblur=0.5 / vbv_maxrate=62500 / vbv_bufsize=78125 / nal_hrd=none / filler=0 / ip_ratio=1.40 / aq=4:0.75 / aq-sensitivity=11.00 / aq-factor=1.00:1.00:1.00 / aq2=1:0.60 / aq2-sensitivity=9.00 / aq2-factor=1.00:1.00:1.00 / aq3=1:[0.60:0.60]:[0.60:0.60]:[0.60:0.60]:[0.60:0.60] / aq3-sensitivity=10.00 / aq3-factor=[1.00:1.00]:[1.00:1.00]:[1.00:1.00] / aq3-boundary=192:64:24
Название: Release for HDCLUB
:
Тип потока: Звук #1
Язык: Russian
Длительность: 01:31:39.147
Кодек: DTS
Кодек/описание: Digital Theater Systems
Кодек/ID: A_DTS
Частота дискретизации: 48.0 KHz
Каналов: 6 channels
Битрейт: 1 509 Kbps
Битрейт/тип: Constant
Размер потока: 989 MiB (8%)
Глубина: 24 bits
Метод сжатия: Lossy
:
Тип потока: Звук #2
Язык: Russian
Длительность: 01:31:39.147
Кодек: AC-3
Кодек/описание: Audio Coding 3
Кодек/ID: A_AC3
Частота дискретизации: 48.0 KHz
Каналов: 1 channel
Битрейт: 224 Kbps
Битрейт/тип: Constant
Размер потока: 147 MiB (1%)
Глубина: 16 bits
Метод сжатия: Lossy
:
Тип потока: Субтитры #1
Язык: English
Формат: UTF-8
Формат/подробно: UTF-8 Plain Text

piratbit.pw



Скачать Иван Васильевич меняет профессию через торрент http://pic.kartinco.top/images/6/xxcam.jpg Скачать фильм Иван Васильевич меняет профессию через торрент бесплантно в хорошем качестве Описание: Инженер-изобретатель Тимофеев сконструировал машину времени, которая соединила его квартиру с далеким шестнадцатым веком - ... 10 10 32
Info! Золотая раздача, скачанное не засчитывается.
Торрент: Зарегистрирован [2013-12-18 14:19] · скачан: 171 раз
Статус: √ проверено
Размер: 12.63 GB
Как cкачать? Как скачать Иван Васильевич меняет профессию через торрент | qTorrent

% Раздел Тема Автор DL S | L
Фильмы (BDRip, HDrip-AVC) (48-60 fps) [ 2.72 GB ] Иван Васильевич меняет профессию [1973 BDRip-AVC 60fps Original] от R.G. HD-Films Tiberiumsun69 Скачать
20 | 0
Документальные фильмы и телепередачи [ 610 MB ] Как Иван Васильевич менял профессию [2014 Документальный HDTVRip] El240781 Скачать
1 | 0
Наши фильмы (Blu-ray, BD-Remux, HDDVD) [ 21.13 GB ] Иван Васильевич меняет профессию [1973 Фантастическая приключени Blu-ray Оригинал] Бумер Скачать
1 | 0
Кино СССР [ 1.46 GB ] Иван Васильевич меняет профессию [ 1973 BDRip Оригинал] akcent Скачать
1 | 0
Кино СССР [ 2.18 GB ] Иван Васильевич меняет профессию [1973 BDRip] roller tm Скачать
1 | 0
Кино СССР [ 1.36 GB ] Иван Васильевич меняет профессию / Ivan Vasilevich menyaet professiyu [1973 ] L_E_X Скачать
1 | 0
Наши фильмы (DVD фильмы) [ 5.46 GB ] Иван Васильевич меняет профессию [1973 DVD9 лицензия] Warhed Скачать
1 | 0

28-11-2019 20:33  

Отключить всю рекламу на сайте

18-12-2013 17:29 Иван Васильевич меняет профессию Скачать торрент  

Васильевич10 из 10 только так.....piratbit.pw



    Дорогой пользователь! Огромная просьба, поблагодарите релизера, оцените раздачу и оставьте свои комментарий, если Вы скачали Иван Васильевич меняет профессию через торрент бесплатно! Внесите свою лепту в развитие PiratBit!
    Комментировать посты могут только пользователи прошедшие не сложную регистрацию
    Показать сообщения:    

    Иван Васильевич меняет профессию через торрент
    Скачать бесплатно Иван Васильевич меняет профессию
    Иван Васильевич меняет профессию скачать торрент
    Иван Васильевич меняет профессию смотреть онлайн
    Cкачать фильм Иван Васильевич меняет профессию бесплатно
    Иван Васильевич меняет профессию скачать торрент в хорошем качестве
    Иван Васильевич меняет профессию смотреть онлайн бесплатно в хорошем качестве


    Вы не можете начинать темы
    Вы не можете отвечать на сообщения
    Вы не можете редактировать свои сообщения
    Вы не можете удалять свои сообщения
    Вы не можете голосовать в опросах
    Вы не можете прикреплять файлы к сообщениям
    Вы можете скачивать файлы