1 сезон

1 сезон

iTunes

1

iTunes

Кинопоиск HD

iTunes

13

1 сезон

RePack

30

Deluxe

ВАЖНО

ИГРА 18+

pack

RePack

MK11
pack

Легкие деньги

RePack

jed

RePack

fifa19

RePack

RDR2

RePack

NEED FOR SPEED™ PAYBACK

4 сезон

9 сезон

Бесстыжие 9 сезон

Все сериалы

все сериалы на PB.wtf

RePack

FAR CRY 5
  
Magnet ссылка

Опустевший город / Reign Over Me (Майк Байндер) [2007 г., драма, HDRip, Профессиональный многоголосый] piratbit.pw

Опустевший город через торрент piratbit.pw

Размер: 1.45 GB | Добавлен: 7 лет 4 мес. назад | Торрент скачан:60 раз
Скачать  

13-12-2013 19:32 Опустевший город Скачать торрент  

Опустевший город / Reign Over Me
Год выпуска: 2007
Страна: США
Жанр: драма,
Продолжительность: 02:04:33
Перевод: Профессиональный многоголосый
Тип релиза: Пиратка
Субтитры: нет

Режиссер: Майк Байндер
Продюссер: Джек Биндер, Майкл Ротенберг, Джек Джиррапуто
Сценарий: Майк Байндер

Бюджет: $ 20 000 000
Премьера в мире: 22 марта 2007

IMDb: 7.50 (73 042)

Кинопоиск: 7.7 (13 121)

В ролях: Адам Сэндлер, Дон Чидл, Джада Пинкетт Смит, Лив Тайлер, Саффрон Берроуз, Дональд Сазерленд, Роберт Клейн, Мелинда Диллон, Майк Байндер, Джонатан Бэнкс,

Описание: Чарли Файнман и Алан Джонсон когда-то вместе учились в колледже и делили одну комнату в общежитии. Спустя годы они встречаются вновь и возобновляют дружеские отношения. Судьба по-разному обошлась с ними.
Чарли, потерявший во время терактов 11 сентября жену и детей, поставил на своей жизни крест. Алан же стал хорошим дантистом и примерным семьянином. Случайная встреча становится для них переломным моментом в жизни, поскольку и тот, и другой как никогда испытывают потребность в преданном друге…

Качество: HDRip
Формат: AVI
Видео кодек: XviD
Аудио кодек: AC3
Видео: 720x304 (2.37:1), 23.976 fps, XviD build 50 ~1211 kbps avg, 0.23 bit/pixel
Аудио#1: 48 kHz, AC3 Dolby Digital, 3/2 (L,C,R,l,r) + LFE ch, ~448.00 kbps avg
Релиз от: Mr_Azick





Общее
Полное имя : D:DownloadsOpustevshiy_gorod_HDRip.avi
Формат : AVI
Формат/Информация : Audio Video Interleave
Размер файла : 1,45 Гбайт
Продолжительность : 2 ч. 4 м.
Общий поток : 1669 Кбит/сек
Программа кодирования : VirtualDubMod 1.5.10.2 (build 2540/release)
Библиотека кодирования : VirtualDubMod build 2540/release

Видео
Идентификатор : 0
Формат : MPEG-4 Visual
Профиль формата : Advanced Simple@L5
Параметр BVOP формата : 1
Параметр QPel формата : Нет
Параметр GMC формата : Без точки перехода
Параметр матрицы формата : Выборочная
Идентификатор кодека : XVID
Идентификатор кодека/Подсказка : XviD
Продолжительность : 2 ч. 4 м.
Битрейт : 1212 Кбит/сек
Ширина : 720 пикселей
Высота : 304 пикселя
Соотношение сторон : 2,35:1
Частота кадров : 23,976 кадра/сек
Цветовое пространство : YUV
Субдискретизация насыщенности : 4:2:0
Битовая глубина : 8 бит
Тип развёртки : Прогрессивная
Метод сжатия : С потерями
Бит/(Пиксели*Кадры) : 0.231
Размер потока : 1,05 Гбайт (73%)
Библиотека кодирования : XviD 1.2.1 (UTC 2008-12-04)

Аудио
Идентификатор : 1
Формат : AC-3
Формат/Информация : Audio Coding 3
Расширение режима : CM (complete main)
Параметр Endianness формата : Big
Идентификатор кодека : 2000
Продолжительность : 2 ч. 4 м.
Вид битрейта : Постоянный
Битрейт : 448 Кбит/сек
Каналы : 6 каналов
Расположение каналов : Front: L C R, Side: L R, LFE
Частота : 48,0 КГц
Битовая глубина : 16 бит
Метод сжатия : С потерями
Размер потока : 399 Мбайт (27%)
Выравнивание : Разделение по промежуткам
Продолжительность промежутка : 42 мс. (1,00 видеокадр)
Время предзагрузки промежутка : 500 мс.

piratbit.pw



Скачать Опустевший город через торрент https://pic1.kartinco.top/images/61/l3nzk.jpg Скачать фильм Опустевший город через торрент бесплантно в хорошем качестве Описание: Чарли Файнман и Алан Джонсон когда-то вместе учились в колледже и делили одну комнату в общежитии. Спустя годы они встречаются ... 10 10 4
Info! Золотая раздача, скачанное не засчитывается.
Торрент: Зарегистрирован [2013-12-13 19:32] · скачан: 60 раз
Статус: √ проверено
Размер: 1.45 GB
Как cкачать? Как скачать Опустевший город через торрент | UTorrent

% Раздел Тема Автор DL S | L
Фильмы [HD 720p, 1080p] (Хороший звук DUB, MVO) [ 11.2 GB ] Опустевший город / Reign Over Me [2007 BDRip 1080p by msltel] MVO msltel Скачать
1 | 0
Фильмы [HD 720p, 1080p] (Хороший звук DUB, MVO) [ 4.47 GB ] Опустевший город / Reign Over Me [2007 BDRip 720p by msltel] MVO msltel Скачать
1 | 0
Фильмы 2006-2008 [ 1.36 GB ] Опустевший город / Reign Over Me [2007 DVDRip лицензия] B@rt Скачать
1 | 0
Фильмы 2006-2008 [ 2.4 GB ] Опустевший город / Reign over me [2007 BDRip-AVC] jb_alex Скачать
1 | 0
Фильмы 2006-2008 [ 1.84 GB ] Опустевший город / Reign over me [2007 HDRip] m9sо Скачать
1 | 0

28-11-2019 20:33  

Отключить всю рекламу на сайте

20-12-2013 12:54 Опустевший город Скачать торрент  

mrazick писал(а):

Опустевший город / Reign Over Me (Майк Байндер) [2007 г., драма, HDRip, Профессиональный многоголосый]

piratbit.pw



27-03-2019 06:11 Опустевший город Скачать торрент  

Сиды вернитесь!!!piratbit.pw



    Дорогой пользователь! Огромная просьба, поблагодарите релизера, оцените раздачу и оставьте свои комментарий, если Вы скачали Опустевший город через торрент бесплатно! Внесите свою лепту в развитие PiratBit!
    Комментировать посты могут только пользователи прошедшие не сложную регистрацию
    Показать сообщения:    

    Опустевший город через торрент
    Скачать бесплатно Опустевший город
    Опустевший город скачать торрент
    Опустевший город смотреть онлайн
    Cкачать фильм Опустевший город бесплатно
    Опустевший город скачать торрент в хорошем качестве
    Опустевший город смотреть онлайн бесплатно в хорошем качестве


    Вы не можете начинать темы
    Вы не можете отвечать на сообщения
    Вы не можете редактировать свои сообщения
    Вы не можете удалять свои сообщения
    Вы не можете голосовать в опросах
    Вы не можете прикреплять файлы к сообщениям
    Вы можете скачивать файлы