Marvel's Avengers Deluxe Edition (супер цена) 159р. Внимание количество ограничено!!!

2 сезон

iTunes

iTunes

1

iTunes

iTunes

iTunes

WEBRip

iTunes

30
pack

Новость дня

ВАЖНО

!!Акция!!

Alien_RageХит недели

RePack

Horizon Zero Dawn

ИГРА 18+

pack

RePack

jed

!!Акция!!

Alien_Rage

RePack

fifa19

RePack

Assassins Creed: Odyssey

RePack

NEED FOR SPEED™ PAYBACK

4 сезон

9 сезон

Бесстыжие 9 сезон

Все сериалы

все сериалы на PB.wtf

RePack

FAR CRY 5
  

Как Иванушка–дурачок за чудом ходил (Надежда Кошеверова) [1977 г., Детский, Семейный, Сказка, Советский фильм, DVDRip] piratbit.pw

Как Иванушка–дурачок за чудом ходил через торрент piratbit.pw

Размер: 1.45 GB | Добавлен: 6 лет 9 мес. назад | Торрент скачан:95 раз
Скачать  

13-12-2013 17:49 Как Иванушка–дурачок за чудом ходил Скачать торрент  

Как Иванушка–дурачок за чудом ходил
Год выпуска: 1977
Страна: СССР
Жанр: Детский, Семейный, Сказка, Советский фильм,
Продолжительность: 01:25:01

Режиссер: Надежда Кошеверова
Сценарий: Михаил Вольпин



В ролях: Александр Бениаминов, Андрей Попов, Владимир Этуш, Елена Проклова, Игорь Дмитриев, Мария Барабанова, Михаил Боярский, Михаил Глузский, Олег Даль, Татьяна Пельтцер,

Описание: Иванушка, гуляя по лесу, встретил в лесу мужика, тащившего тяжелый мешок. Он хотел помочь ему, но мужик повел себя странно, сначала он накинулся на Ивана, а затем, бросив свою поклажу убежал прочь. Иван открыл мешок, а тот полон золотой, да серебряной утвари. Понял Иванушка, что вещи эти украдены из богатого дома. На золотом подстаканнике Иван прочел выгравированное имя и решил вернуть украденное хозяину. Не знал Иванушка, в какие переделки он попадет, постучавшись в дверь ограбленного дома...

Качество: DVDRip
Формат: AVI
Видео кодек: XviD
Аудио кодек: AC3
Видео: 720x320 (2.25:1), 25 fps, XviD build 50 ~1988 kbps avg, 0.35 bit/pixel
Аудио#1: 48 kHz, AC3 Dolby Digital, 3/2 (L,C,R,l,r) + LFE ch, ~448.00 kbps avg
Общее
Полное имя : F:ЗакачкиKak.Ivanushka.Durachok.Za.Chudom.Hodil.1977.DVDRip.avi
Формат : AVI
Формат/Информация : Audio Video Interleave
Размер файла : 1,45 Гбайт
Продолжительность : 1 ч. 25 м.
Общий поток : 2446 Кбит/сек
Программа кодирования : VirtualDubMod 1.5.10.3 | www.virtualdub-fr.org || (build 2550/release)
Библиотека кодирования : VirtualDubMod build 2550/release

Видео
Идентификатор : 0
Формат : MPEG-4 Visual
Профиль формата : Advanced Simple@L5
Параметр BVOP формата : 2
Параметр QPel формата : Нет
Параметр GMC формата : Без точки перехода
Параметр матрицы формата : Default (H.263)
Идентификатор кодека : XVID
Идентификатор кодека/Подсказка : XviD
Продолжительность : 1 ч. 25 м.
Битрейт : 1988 Кбит/сек
Ширина : 720 пикселей
Высота : 320 пикселей
Соотношение сторон : 2,25:1
Частота кадров : 25,000 кадров/сек
Цветовое пространство : YUV
Субдискретизация насыщенности : 4:2:0
Битовая глубина : 8 бит
Тип развёртки : Прогрессивная
Метод сжатия : С потерями
Бит/(Пиксели*Кадры) : 0.345
Размер потока : 1,18 Гбайт (81%)
Библиотека кодирования : XviD 1.2.1 (UTC 2008-12-04)

Аудио
Идентификатор : 1
Формат : AC-3
Формат/Информация : Audio Coding 3
Расширение режима : CM (complete main)
Параметр Endianness формата : Big
Идентификатор кодека : 2000
Продолжительность : 1 ч. 25 м.
Вид битрейта : Постоянный
Битрейт : 448 Кбит/сек
Каналы : 6 каналов
Расположение каналов : Front: L C R, Side: L R, LFE
Частота : 48,0 КГц
Битовая глубина : 16 бит
Метод сжатия : С потерями
Размер потока : 272 Мбайт (18%)
Выравнивание : Разделение по промежуткам
Продолжительность промежутка : 40 мс. (1,00 видеокадр)
Время предзагрузки промежутка : 500 мс.

piratbit.pw



Скачать Как Иванушка–дурачок за чудом ходил через торрент http://s6.uploads.ru/jq9BP.jpg Скачать фильм Как Иванушка–дурачок за чудом ходил через торрент бесплантно в хорошем качестве Описание: Иванушка, гуляя по лесу, встретил в лесу мужика, тащившего тяжелый мешок. Он хотел помочь ему, но мужик повел себя странно, ... 10 10 13
Info! Золотая раздача, скачанное не засчитывается.
Торрент: Зарегистрирован [2013-12-13 17:49] · скачан: 95 раз
Статус: √ проверено
Размер: 1.45 GB
Как cкачать? Как скачать Как Иванушка–дурачок за чудом ходил через торрент | qTorrent

28-11-2019 20:33  

Отключить всю рекламу на сайте

13-12-2013 19:30 Как Иванушка–дурачок за чудом ходил Скачать торрент  

Вот так радость. Вспомню детство. piratbit.pw



    Дорогой пользователь! Огромная просьба, поблагодарите релизера, оцените раздачу и оставьте свои комментарий, если Вы скачали Как Иванушка–дурачок за чудом ходил через торрент бесплатно! Внесите свою лепту в развитие PiratBit!
    Комментировать посты могут только пользователи прошедшие не сложную регистрацию
    Показать сообщения:    

    Как Иванушка–дурачок за чудом ходил через торрент
    Скачать бесплатно Как Иванушка–дурачок за чудом ходил
    Как Иванушка–дурачок за чудом ходил скачать торрент
    Как Иванушка–дурачок за чудом ходил смотреть онлайн
    Cкачать фильм Как Иванушка–дурачок за чудом ходил бесплатно
    Как Иванушка–дурачок за чудом ходил скачать торрент в хорошем качестве
    Как Иванушка–дурачок за чудом ходил смотреть онлайн бесплатно в хорошем качестве


    Вы не можете начинать темы
    Вы не можете отвечать на сообщения
    Вы не можете редактировать свои сообщения
    Вы не можете удалять свои сообщения
    Вы не можете голосовать в опросах
    Вы не можете прикреплять файлы к сообщениям
    Вы можете скачивать файлы