Мега распродажа FORZA HORIZON 4 ULTIMATE+ВСЕ DLC+ОНЛАЙН всего за 499р. 349 руб. (супер цена). Внимание количество ограничено!!!

iTunes

1+1

iTunes

мы

iTunes

1

1 сезон

Чернобыль

1 сезон

Ральф против интернета

Лицензия

ПШазам

8 сезон

Игра престолов

Лицензия

30
pack

ВАЖНО

!!Акция!!

Alien_RageХит недели

RePack

Resident Evil 21

ИГРА 18+

pack

RePack

Metro:Exodus

!!Акция!!

Alien_Rage

RePack

fifa19

RePack

Assassins Creed: Odyssey

RePack

NEED FOR SPEED™ PAYBACK

3 сезон

9 сезон

Бесстыжие 9 сезон

Все сериалы

все сериалы на PB.wtf

RePack

FAR CRY 5
Ребята, катастрофически не хватает 2730р. для оплаты серверов за ИЮНЬ (всвязи с блокировками трафик упал в 3 раза), 1-2р., выручайте.
  

Железная маска / Le Masque de Fer (The Iron Mask) (Анри Декуан) [1962 г., Приключения, костюмированный, экранизация, костюмно-приключенческий боевик, DVDRip, Дубляж] piratbit.pw

Железная маска через торрент piratbit.pw

Размер: 2.05 GB | Добавлен: 5 лет 7 мес. назад | Торрент скачан:16 раз
Скачать  

12-12-2013 09:43 Железная маска Скачать торрент  

Железная маска / Le Masque de Fer (The Iron Mask)
Год выпуска: 1962
Страна: Франция, Италия
Жанр: Приключения, костюмированный, экранизация, костюмно-приключенческий боевик,
Продолжительность: 02:02:48
Перевод: Дубляж

Режиссер: Анри Декуан
Сценарий: Лорен Де, Жеральд Девриес, Сесиль Сен-Лоран

Премьера в мире: 26 октября 1962

зрителям, достигшим 16 лет
IMDb: 5.90 (244)
Кинопоиск: 7.595 479

В ролях: Жан Марэ, Жан-Франсуа Порон, Энрико Мария Салерно, Клодин Оже, Сильва Кошина, Жан Рошфор, Шарль Байяр, Жизель Паскаль, Филип Лемэр, Ноэль Роквер, Жермен Монтеро, Жан Дави, Раймон Жером, Клеман Тьерри, Макс Монтавон, Жан Лара, Эдмон Тамиз, Альбер Даньян, Камилла Герини, Антуан Бо, Жан Берже, Рауль Бийре, Андре Каньяр, Иван Шиффр, Робер Ле Беаль,

Описание: В крепости на далеком острове где-то в Средиземном море томится анонимный пленник. Под страхом смертной казни никто не смеет видеть узника без маски, скрывающей его лицо. А на другом конце воюющей Европы, в Париже, сильнейшая лихорадка привела на грань жизни и смерти Его Величество Людовика XIV, молодого короля Франции. Под угрозой подписание мирного договора с Испанией, главным условием которого должен стать союз Людовика XIV и Инфанты Испанской. Не будет короля - не будет выгодной свадьбы и долгожданного мира. В этот драматический момент интриган и умница кардинал Мазарини поручает капитану Д'Артаньяну (Жан Маре) весьма щекотливое дело - доставить в Париж живым и невредимым таинственного пленника - брата-близнеца короля. Задание опасное и непростое, но капитан королевских мушкетеров азартен, отважен и молод душой...

Качество: DVDRip
Формат: AVI
Видео кодек: XviD
Аудио кодек: MP3
Видео: 704x304 (2.32:1), 25 fps, XviD build 46 ~2290 kbps avg, 0.43 bit/pixel
Аудио#1: 48 kHz, MPEG Layer 3, 2 ch, ~96.00 kbps avg










Общее
Полное имя : D:torrentZheleznaya.maska.1962.XviD.DVDRip.avi
Формат : AVI
Формат/Информация : Audio Video Interleave
Профиль формата : OpenDML
Размер файла : 2,05 Гбайт
Продолжительность : 2 ч. 2 м.
Общий поток : 2393 Кбит/сек
Программа кодирования : VirtualDubMod 1.5.4.1 (build 2178/release)
Библиотека кодирования : VirtualDubMod build 2178/release

Видео
Идентификатор : 0
Формат : MPEG-4 Visual
Профиль формата : Advanced Simple@L5
Параметр BVOP формата : 1
Параметр QPel формата : Нет
Параметр GMC формата : Без точки перехода
Параметр матрицы формата : Выборочная
Идентификатор кодека : XVID
Идентификатор кодека/Подсказка : XviD
Продолжительность : 2 ч. 2 м.
Битрейт : 2288 Кбит/сек
Ширина : 704 пикселя
Высота : 304 пикселя
Соотношение сторон : 2,35:1
Частота кадров : 25,000 кадров/сек
Цветовое пространство : YUV
Субдискретизация насыщенности : 4:2:0
Битовая глубина : 8 бит
Тип развёртки : Прогрессивная
Метод сжатия : С потерями
Бит/(Пиксели*Кадры) : 0.428
Размер потока : 1,96 Гбайт (96%)
Библиотека кодирования : XviD 1.1.2 (UTC 2006-11-01)

Аудио
Идентификатор : 1
Формат : MPEG Audio
Версия формата : Version 1
Профиль формата : Layer 3
Режим : Joint stereo
Расширение режима : Intensity Stereo + MS Stereo
Идентификатор кодека : 55
Идентификатор кодека/Подсказка : MP3
Продолжительность : 2 ч. 2 м.
Вид битрейта : Постоянный
Битрейт : 96,0 Кбит/сек
Каналы : 2 канала
Частота : 48,0 КГц
Метод сжатия : С потерями
Размер потока : 84,3 Мбайт (4%)
Выравнивание : Разделение по промежуткам
Продолжительность промежутка : 80 мс. (2,00 видеокадра)
Время предзагрузки промежутка : 500 мс.

piratbit.pw



Скачать Железная маска через торрент http://pic.kartinco.top/images/6/w96l2.jpg Скачать фильм Железная маска через торрент бесплантно в хорошем качестве Описание: В крепости на далеком острове где-то в Средиземном море томится анонимный пленник. Под страхом смертной казни никто не смеет ... 10 10 4
Info! Золотая раздача, скачанное не засчитывается.
Торрент: Зарегистрирован [2013-12-12 09:43] · скачан: 16 раз
Статус: √ проверено
Размер: 2.05 GB
Как cкачать? Как скачать Железная маска через торрент | qTorrent

% Раздел Тема Автор DL S | L
Фильмы [HD 720p, 1080p] (Хороший звук DUB, MVO) [ 4.8 GB ] Железная маска / Le Masque de Fer [1962 BDRip 720p by msltel] DUB MVO DVO msltel Скачать
1 | 0
Фильмы [HD 720p, 1080p] (Хороший звук DUB, MVO) [ 12.47 GB ] Железная маска / Le Masque de Fer [1962 BDRip 1080p by msltel] DUB MVO DVO msltel Скачать
1 | 0
Классика зарубежного кино [ 2.05 GB ] Железная маска / Le masque de fer [1962 DVDRip DUB ] jump88 Скачать
1 | 0


>> Регистрируемся здесь <<






Отзывы и комментарии о схеме читаем и пишем здесь: ---> Отзывы и комментарии о схеме

Новые благодарочки в телеграм довольных пользователей:
скриншот   скриншот   скриншот   скриншот   скриншот

12-12-2013 09:53 Железная маска Скачать торрент  

Жан Маре был гомосексуалистом, а всегда играл благородных героев-любовников. Вот так вот, Господа...Внешность обманчива))piratbit.pw



12-12-2013 10:22 Железная маска Скачать торрент  

mobi29 писал(а):

Жан Маре был гомосексуалистом, а всегда играл благородных героев-любовников. Вот так вот, Господа...Внешность обманчива))

это не "внешность обманчива", а "великолепная актёрская игра" :rofle:piratbit.pw



    Дорогой пользователь! Огромная просьба, поблагодарите релизера, оцените раздачу и оставьте свои комментарий, если Вы скачали Железная маска через торрент бесплатно! Внесите свою лепту в развитие PiratBit!
    Комментировать посты могут только пользователи прошедшие не сложную регистрацию
    Показать сообщения:    

    Железная маска через торрент
    Скачать бесплатно Железная маска
    Железная маска скачать торрент
    Железная маска смотреть онлайн
    Cкачать фильм Железная маска бесплатно
    Железная маска скачать торрент в хорошем качестве
    Железная маска смотреть онлайн бесплатно в хорошем качестве


    Вы не можете начинать темы
    Вы не можете отвечать на сообщения
    Вы не можете редактировать свои сообщения
    Вы не можете удалять свои сообщения
    Вы не можете голосовать в опросах
    Вы не можете прикреплять файлы к сообщениям
    Вы можете скачивать файлы