1 сезон

3 сезон

iTunes

1

iTunes

DUB Netflix

iTunes

13

1 сезон

RePack

30

Deluxe

pack

Легкие деньги

ВАЖНО

ИГРА 18+

pack

RePack

MK11

RePack

jed

RePack

fifa19

RePack

RDR2

RePack

NEED FOR SPEED™ PAYBACK

4 сезон

9 сезон

Бесстыжие 9 сезон

Все сериалы

все сериалы на PB.wtf

RePack

FAR CRY 5

Anonymous, доброй ночи, мы не успеваем до 1 числа собрать деньги на оплату серверов, помогите нам пожалуйста в это трудное время. В качестве благодарности мы отключим Вам всю рекламу на сайте (укажите свой ник в строку Ваше имя)!

×
  
Magnet ссылка

Не вижу зла / See No Evil (Грегори Дарк / Gregory Dark) [2006, США, ужасы, триллер, BDRip]Профессиональный (полное дублирование) piratbit.pw

Не вижу зла через торрент piratbit.pw

Размер: 1.45 GB | Добавлен: 7 лет 6 мес. назад | Торрент скачан:310 раз
Скачать  

11-12-2013 03:59 Не вижу зла Скачать торрент  

Не вижу зла / See No Evil«Зло обретает плоть»
Год выпуска: 2006
Страна: США
Жанр: ужасы, триллер

Продолжительность: 01:23:59
Перевод: Профессиональный (полное дублирование)
Субтитры: Нет

Режиссер: Грегори Дарк / Gregory Dark
Сценарий: Дэн Мэдигэн / Dan Madigan
Продюсер: Джоэль Саймон / Joel Simon, Шарлотт Блейк / Sharlotte Blake, Джед Блаугрунд / Jed Blaugrund, Питер Блок / Peter Block, Мэтт Кэрролл / Matt Carroll
Оператор: Бен Нотт / Ben Nott
Композитор: Тайлер Бейтс / Tyler Bates

В ролях: Глен Джейкобс (Jacob Goodnight), Кристина Видал (Christine), Майкл Дж. Паган (Tye), Саманта Ноубл (Kira), Стивен Видлер (Williams), Сесиль Полсон (Margaret), Люк Пеглер (Michael), Рэйчел Тейлор (Zoe), Пенни МакНэми (Melissa), Крэйг Хорнер (Richie), Михаэль Уайлдер (Russell), Тиффани Ламб (Hannah)

Дублёры: Жанна Никонова (Christine), Андрей Бархударов (Tye), Пётр Иващенко, Наталья Фищук (Kira), Алексей Иващенко (Williams), Ирина Савина (Margaret), Илья Хвостиков (Michael), Татьяна Шитова (Zoe), Полина Щербакова (Melissa), Александр Комлев (Richie), Алексей Елистратов (Russell), Ольга Зубкова (Hannah)

Бюджет: $8 000 000
Сборы в США: $15 032 800
Сборы в России: $440 000
Сборы в мире: $18 207 596

Мировая премьера: 18 мая 2006
Релиз на DVD: 1 декабря 2006

Описание: В заброшенном, обветшалом отеле обитает психопат-отшельник Джекоб Гуднайт, в череп которого вставлена стальная пластина. Этот двухметровый верзила весом 180 кг вырывает глаза своим жертвам острыми, как бритва, ногтями...
Однажды в жилище Джекоба вторгаются восемь юных правонарушителей, отправленных приводить в порядок эту богом забытую гостиницу; за ними присматривает полицейский, который четыре года назад пустил Джекобу пулю в лоб. Когда же маньяк похищает девушку, входившую в состав группы, и ее жизнь оказывается под угрозой, остальным ребятам приходится приложить все свои силы для борьбы с неуязвимым злодеем...

Рейтинг
kinopoisk.ru: 5.810 (6355)
imdb.com: 4.90 (17 111)
MPAA: R - Лицам до 17 лет обязательно присутствие взрослого

Качество: BDRip
Формат: AVI
Видео кодек: XviD
Аудио кодек: AC3
Видео: 2021 Кбит/сек, 704*400 (16:9), в 23,976 кадра/сек, MPEG-4 Visual (XviD)
Аудио: 448 Кбит/сек, 48,0 КГц, 16 бит, 6 каналов, AC-3

Общее
Кол-во : 279
Кол-во потоков такого типа : 1
Тип потока : General
Тип потока : Общее
Идентификатор типа потока : 0
Inform : AVI: 1,45 Гбайт, 1 ч. 23 м.
Кол-во видеопотоков : 1
Кол-во аудиопотоков : 1
Video_Format_List : MPEG-4 Visual
Video_Format_WithHint_List : MPEG-4 Visual (XviD)
Видеокодеки : XviD
Audio_Format_List : AC-3
Audio_Format_WithHint_List : AC-3
Аудиокодеки : AC3
Полное имя : D:ФильмыЗло.avi
Имя папки : D:Фильмы
Имя файла : Зло
Расширение : avi
Формат : AVI
Формат : AVI
Формат/Информация : Audio Video Interleave
Формат/Используется в : avi
Коммерческое название : AVI
Интернет-тип носителя : video/vnd.avi
Чередующаяся : Yes
Кодек : AVI
Кодек : AVI
Кодек/Информация : Audio Video Interleave
Кодек/Используется в : avi
Размер файла : 1561319424
Размер файла : 1,45 Гбайт
Размер файла : 1 Гбайт
Размер файла : 1,5 Гбайт
Размер файла : 1,45 Гбайт
Размер файла : 1,454 Гбайт
Продолжительность : 5039910
Продолжительность : 1 ч. 23 м.
Продолжительность : 1 ч. 23 м. 59 с. 910 мс.
Продолжительность : 1 ч. 23 м.
Продолжительность : 01:23:59.910
Общий поток : 2478329
Общий поток : 2478 Кбит/сек
Размер потока : 5912922
Размер потока : 5,64 Мбайт (0%)
Размер потока : 6 Мбайт
Размер потока : 5,6 Мбайт
Размер потока : 5,64 Мбайт
Размер потока : 5,639 Мбайт
Размер потока : 5,64 Мбайт (0%)
Пропорции потока : 0.00379
Заголовок : Ne.Vizhu.Zla.2006.RUS.BDRip.XviD.AC3.-HELLYWOOD
Название фильма : Ne.Vizhu.Zla.2006.RUS.BDRip.XviD.AC3.-HELLYWOOD
Режиссёр : denashekkk
Дата файла : UTC 2013-12-10 10:22:54.380
Дата файла (местная) : 2013-12-10 17:22:54.380
Дата изменения файла : UTC 2013-12-10 12:17:05.234
Дата изменения файла (местная) : 2013-12-10 19:17:05.234
Программа кодирования : VirtualDubMod 1.5.10.2 (build 2542/release)
Правообладатель : http://forum.hellywood.ru/forum.php

Видео
Кол-во : 248
Кол-во потоков такого типа : 1
Тип потока : Video
Тип потока : Видео
Идентификатор типа потока : 0
Inform : 2021 Кбит/сек, 704*400 (16:9), в 23,976 кадра/сек, MPEG-4 Visual (XviD) (Advanced Simple@L5) (BVOP2 / Custom Matrix)
Идентификатор : 0
Идентификатор : 0
Формат : MPEG-4 Visual
Коммерческое название : MPEG-4 Visual
Профиль формата : Advanced Simple@L5
Настройки формата : BVOP2 / Custom Matrix
Параметр BVOP формата : 2
Параметр BVOP формата : 2
Параметр QPel формата : No
Параметр QPel формата : Нет
Параметр GMC формата : 0
Параметр GMC формата : Без точки перехода
Параметр матрицы формата : Custom
Параметр матрицы формата : Выборочная
Format_Settings_Matrix_Data : 080A0A0A0A0A0A0A0A0A0B0A0B0A0B0B0B0B0B0B0B0D0C0D0D0D0C0D0F0E0E0F0F0E0E0F10101113111010121316161312171A1C1A171D22221D292C29373748 / 0F0F0F0F0F0F0F0F0F0F100F100F101110111110111312131313121316141416161414161717191C1917171B1D20201D1B21262926212B32322B3C423C51516A
Интернет-тип носителя : video/MP4V-ES
Идентификатор кодека : XVID
Идентификатор кодека/Подсказка : XviD
Идентификатор кодека/Ссылка : http://mediaarea.net/XVID
Кодек : XVID
Кодек : XviD
Кодек/Семейство : MPEG-4V
Кодек/Информация : XviD project
Кодек/Ссылка : http://www.xvid.org/Downloads.15.0.html
Кодек/CC : XVID
Профиль кодека : Advanced Simple@L5
Настройки кодека : BVOP / Custom Matrix
Параметр пакетного потока данных кодека : No
Параметр BVOP кодека : Yes
Параметр QPel кодека : No
Параметр GMC кодека : 0
Параметр GMC кодека : Без точки перехода
Параметр матрицы кодека : Custom
Продолжительность : 5039910
Продолжительность : 1 ч. 23 м.
Продолжительность : 1 ч. 23 м. 59 с. 910 мс.
Продолжительность : 1 ч. 23 м.
Продолжительность : 01:23:59.910
Битрейт : 2020942
Битрейт : 2021 Кбит/сек
Ширина : 704
Ширина : 704 пикселя
Высота : 400
Высота : 400 пикселей
Пропорции пикселя : 1.000
Соотношение сторон : 1.760
Соотношение сторон : 16:9
Частота кадров : 23.976
Частота кадров : 23,976 кадра/сек
Счётчик кадров : 120837
Разрешение : 8
Разрешение : 8 бит
Колориметрия : 4:2:0
Цветовое пространство : YUV
Субдискретизация насыщенности : 4:2:0
Битовая глубина : 8
Битовая глубина : 8 бит
Тип развёртки : Progressive
Тип развёртки : Прогрессивная
Переплетение : PPF
Переплетение : Прогрессивная
Метод сжатия : Lossy
Метод сжатия : С потерями
Бит/(Пиксели*Кадры) : 0.299
Задержка : 0
Задержка : 00:00:00.000
Размер потока : 1273171775
Размер потока : 1,19 Гбайт (82%)
Размер потока : 1 Гбайт
Размер потока : 1,2 Гбайт
Размер потока : 1,19 Гбайт
Размер потока : 1,186 Гбайт
Размер потока : 1,19 Гбайт (82%)
Пропорции потока : 0.81545
Библиотека кодирования : XviD0065
Библиотека кодирования : XviD 65
Библиотека кодирования/Имя : XviD
Библиотека кодирования/Version : 65

Аудио
Кол-во : 245
Кол-во потоков такого типа : 1
Тип потока : Audio
Тип потока : Аудио
Идентификатор типа потока : 0
Inform : 448 Кбит/сек, 48,0 КГц, 16 бит, 6 каналов, AC-3
Идентификатор : 1
Идентификатор : 1
Формат : AC-3
Формат/Информация : Audio Coding 3
Коммерческое название : AC-3
Расширение режима : CM (complete main)
Параметр Endianness формата : Big
Идентификатор кодека : 2000
Кодек : AC3
Кодек : AC3
Кодек/Семейство : AC3
Кодек/Информация : Dolby AC3
Кодек/CC : 2000
Продолжительность : 5039906
Продолжительность : 1 ч. 23 м.
Продолжительность : 1 ч. 23 м. 59 с. 906 мс.
Продолжительность : 1 ч. 23 м.
Продолжительность : 01:23:59.906
Вид битрейта : CBR
Вид битрейта : Постоянный
Битрейт : 448000
Битрейт : 448 Кбит/сек
Каналы : 6
Каналы : 6 каналов
Расположение каналов : Front: L C R, Side: L R, LFE
Расположение каналов : 3/2/0.1
Частота : 48000
Частота : 48,0 КГц
Количество образцов : 241915488
Разрешение : 16
Разрешение : 16 бит
Битовая глубина : 16
Битовая глубина : 16 бит
Метод сжатия : Lossy
Метод сжатия : С потерями
Задержка : 0
Задержка : 00:00:00.000
Задержка в оригинале : Stream
Задержка в оригинале : 'Сырой' поток
Задержка видео : 0
Задержка видео : 0
Размер потока : 282234727
Размер потока : 269 Мбайт (18%)
Размер потока : 269 Мбайт
Размер потока : 269 Мбайт
Размер потока : 269 Мбайт
Размер потока : 269,2 Мбайт
Размер потока : 269 Мбайт (18%)
Пропорции потока : 0.18077
Выравнивание : Split
Выравнивание : Разделение по промежуткам
Продолжительность промежутка : 1.00
Продолжительность промежутка : 42
Продолжительность промежутка : 42 мс. (1,00 видеокадр)
Время предзагрузки промежутка : 500
Время предзагрузки промежутка : 500 мс.
dialnorm : -27
dialnorm/String : -27 dB
compr : -0.28
compr/String : -0.28 dB
dynrng : -0.86
dynrng/String : -0.86 dB
bsid : 8
dialnorm_Average : -27
dialnorm_Average/String : -27 dB
dialnorm_Minimum : -27
dialnorm_Minimum/String : -27 dB
dialnorm_Maximum : -27
dialnorm_Maximum/String : -27 dB
dialnorm_Count : 405
compr_Average : 0.52
compr_Average/String : 0.52 dB
compr_Minimum : -0.28
compr_Minimum/String : -0.28 dB
compr_Maximum : 2.77
compr_Maximum/String : 2.77 dB
compr_Count : 405
dynrng_Average : -0.23
dynrng_Average/String : -0.23 dB
dynrng_Minimum : -0.86
dynrng_Minimum/String : -0.86 dB
dynrng_Maximum : 0.00
dynrng_Maximum/String : 0.00 dB
dynrng_Count : 405


скриншот  скриншот  скриншот  скриншот  скриншот  скриншот  скриншот  скриншот  скриншот  скриншот  



piratbit.pw



Скачать Не вижу зла через торрент http://trueimages.ru/img/de/e7/f40d7a25.jpg Скачать фильм Не вижу зла через торрент бесплантно в хорошем качестве Описание: В заброшенном, обветшалом отеле обитает психопат-отшельник Джекоб Гуднайт, в череп которого вставлена стальная пластина. Этот ... 9.4 10 15
Info! Золотая раздача, скачанное не засчитывается.
Торрент: Зарегистрирован [2013-12-11 03:59] · скачан: 310 раз
Статус: √ проверено
Размер: 1.45 GB
Как cкачать? Как скачать Не вижу зла через торрент | UTorrent

% Раздел Тема Автор DL S | L
Фильмы 2014 [DVDrip, WEB-DLRip, HDrip] [ 1.86 GB ] Не вижу зла 2 / See No Evil 2 [2014 BDRip-AVC MVO VO] winchester00100010 Скачать
1 | 0
Фильмы 2006-2008 [ 2.31 GB ] Не вижу зла / See No Evil [2006 BDRip-AVC ] winchester00100010 Скачать
1 | 0
Фильмы (Blu-ray, BD-Remux, HDDVD) [ 16.81 GB ] Не вижу зла 2 / See No Evil 2 [2014 BDRemux 1080p] MVO Ворон Скачать
1 | 0
Фильмы [HD 720p, 1080p] (Хороший звук DUB, MVO) [ 4.7 GB ] Не вижу зла 2 / See No Evil 2 [2014 BDRip 720p Любительский многоголосый] TeSo33 Скачать
1 | 0
Фильмы 2014 [DVDrip, WEB-DLRip, HDrip] [ 1.44 GB ] Не вижу зла 2 / See No Evil 2 [2014 HDRip MVO] Ворон Скачать
1 | 0
T Фильмы 2014 (Звук TS, Cam, VO, DVO) [ 1.27 GB ] Не вижу зла 2 / See No Evil 2 [2014 HDRip Любительский [МЕГАПЫХАРЬ] GEKADOL Скачать
1 | 0
Фильмы [HD 720p, 1080p] (Хороший звук DUB, MVO) [ 8.33 GB ] Не вижу зла / See No Evil [2006 BDRip 1080p многоголосый] TeSo33 Скачать
1 | 0

28-11-2019 20:33  

Отключить всю рекламу на сайте

11-12-2013 08:17 Не вижу зла Скачать торрент  

Неплохой фильм. Спецэффекты качественные.piratbit.pw



11-12-2013 08:31 Не вижу зла Скачать торрент  

Liloo_Foofyga писал(а):

Неплохой фильм. Спецэффекты качественные.

Согласен) piratbit.pw



11-12-2013 09:32 Не вижу зла Скачать торрент  

Смотрел когдато-понравилась киношкаpiratbit.pw



23-12-2013 19:18 Не вижу зла Скачать торрент  

92 раза скачали,а раздачи piratbit.pw



23-12-2013 19:21 Не вижу зла Скачать торрент  

такие раздачи ,когда не кто не раздаетpiratbit.pw



31-10-2014 15:34 Не вижу зла Скачать торрент  

ilya 99 писал(а):

такие раздачи ,когда не кто не раздает

ай-ай, можно ведь автору лс написать.piratbit.pw



    Дорогой пользователь! Огромная просьба, поблагодарите релизера, оцените раздачу и оставьте свои комментарий, если Вы скачали Не вижу зла через торрент бесплатно! Внесите свою лепту в развитие PiratBit!
    Комментировать посты могут только пользователи прошедшие не сложную регистрацию
    Показать сообщения:    

    Не вижу зла через торрент
    Скачать бесплатно Не вижу зла
    Не вижу зла скачать торрент
    Не вижу зла смотреть онлайн
    Cкачать фильм Не вижу зла бесплатно
    Не вижу зла скачать торрент в хорошем качестве
    Не вижу зла смотреть онлайн бесплатно в хорошем качестве


    Вы не можете начинать темы
    Вы не можете отвечать на сообщения
    Вы не можете редактировать свои сообщения
    Вы не можете удалять свои сообщения
    Вы не можете голосовать в опросах
    Вы не можете прикреплять файлы к сообщениям
    Вы можете скачивать файлы