новый адрес пиратбит piratbit
Мега распродажа FORZA HORIZON 4 ULTIMATE+ВСЕ DLC+ОНЛАЙН всего за 499р. 349 руб. (супер цена). Внимание количество ограничено!!!

iTunes

1+1

iTunes

мы

iTunes

1

iTunes

Чернобыль

iTunes

Ральф против интернета

Лицензия

ПШазам

Лицензия

Игра престолов

Лицензия

30
pack

ВАЖНО

!!Акция!!

Alien_RageХит недели

RePack

Resident Evil 21

ИГРА 18+

pack

RePack

Metro:Exodus

!!Акция!!

Alien_Rage

RePack

fifa19

RePack

Assassins Creed: Odyssey

RePack

NEED FOR SPEED™ PAYBACK

3 сезон

9 сезон

Бесстыжие 9 сезон

Все сериалы

все сериалы на PB.wtf

RePack

FAR CRY 5
Ребята, катастрофически не хватает 1900р. для оплаты серверов за Октябрь (всвязи с блокировками трафик упал в 3 раза), 1-2р., выручайте.
  

Через Париж / La traversée de Paris (Клод Отан-Лара) [1956, комедия, BDRip] [MVO] + [DVO] piratbit.pw

Через Париж через торрент piratbit.pw

Размер: 1.45 GB | Добавлен: 5 лет 11 мес. назад | Торрент скачан:84 раза
Скачать  

30-11-2013 20:09 Через Париж Скачать торрент  

Через Париж / La traversée de Paris
Год выхода: 1956
Жанр: комедия
Выпущено: Франция, Италия
Продолжительность: 01:23:14
Перевод #1: Профессиональный (многоголосый, закадровый) [студия «Пифагор»]
Перевод #2: Профессиональный (двухголосый, закадровый) [Cinema Prestige]
Оригинал: французский
Субтитры: русские, английские

Режиссер: Клод Отан-Лара

В ролях: Жан Габен, Бурвиль, Луи де Фюнес, Жаннетта Батти, Жоржетт Анис, Роберт Арну, Лоранс Бади, Мино Берни, Жермэн Дельба, Монетт Динэ

Описание: Безработный шофер Мартен подрядился перетащить два чемодана контрабандной свинины через ночной Париж. Ему очень нужны деньги, и он берётся за такое рискованное дело не в первый раз. В помощники к нему навязывается Гранжиль, преуспевающий художник, идущий на авантюру лишь ради новых острых ощущений.

Много приключений выпадет на долю случайных партнёров, пока они не попадут в руки ночного патруля немцев. А за нарушение комендантского часа у гестапо наказание одно расстрел.

Сэмпл

Релиз от -
Автор рипа: yaroslaigor

Качество: BDRip (Исх. Blu-Ray Remux 1080р)
Формат: AVI
Видео кодек: XviD
Аудио кодек: AC3
Видео: 704x528 (1.33:1), 24 fps, XviD build 65 ~2186 kbps avg, 0.25 bit/pixel
Аудио #1: 48 kHz, AC3 Dolby Digital, 1/0 (C) ch, ~96 kbps avg (MVO) «Пифагор»
Аудио #2: 48 kHz, AC3 Dolby Digital, 1/0 (C) ch, ~96 kbps avg (DVO) Cinema Prestige
Аудио #3: 48 kHz, AC3 Dolby Digital, 1/0 (C) ch, ~96 kbps avg (FRE)
General
Complete name : E:INTERNETCherez.Parizh.1956.TRIPLE.BDRip.XviD.AC3.-HQCLUB.avi
Format : AVI
Format/Info : Audio Video Interleave
File size : 1.45 GiB
Duration : 1h 23mn
Overall bit rate : 2 495 Kbps
Movie name : Через Париж / The Trip Across Paris / La traversee de Paris (1956) BDRip
Director : yaroslaigor
Genre : комедия
Writing application : VirtualDubMod 1.5.10.2 (build 2542/release)

Video
ID : 0
Format : MPEG-4 Visual
Format profile : Advanced Simple@L5
Format settings, BVOP : Yes
Format settings, QPel : No
Format settings, GMC : No warppoints
Format settings, Matrix : Custom
Codec ID : XVID
Codec ID/Hint : XviD
Duration : 1h 23mn
Bit rate : 2 188 Kbps
Width : 704 pixels
Height : 528 pixels
Display aspect ratio : 4:3
Frame rate : 24.000 fps
Color space : YUV
Chroma subsampling : 4:2:0
Bit depth : 8 bits
Scan type : Progressive
Bits/(Pixel*Frame) : 0.245
Stream size : 1.27 GiB (88%)
Writing library : XviD 65

Audio #1
ID : 1
Format : AC-3
Format/Info : Audio Coding 3
Mode extension : CM (complete main)
Codec ID : 2000
Duration : 1h 23mn
Bit rate mode : Constant
Bit rate : 96.0 Kbps
Channel(s) : 1 channel
Channel positions : Front: C
Sampling rate : 48.0 KHz
Bit depth : 16 bits
Stream size : 57.2 MiB (4%)
Alignment : Split accross interleaves
Interleave, duration : 42 ms (1.00 video frame)
Interleave, preload duration : 500 ms

Audio #2
ID : 2
Format : AC-3
Format/Info : Audio Coding 3
Mode extension : CM (complete main)
Codec ID : 2000
Duration : 1h 23mn
Bit rate mode : Constant
Bit rate : 96.0 Kbps
Channel(s) : 1 channel
Channel positions : Front: C
Sampling rate : 48.0 KHz
Bit depth : 16 bits
Stream size : 57.2 MiB (4%)
Alignment : Split accross interleaves
Interleave, duration : 42 ms (1.00 video frame)
Interleave, preload duration : 500 ms

Audio #3
ID : 3
Format : AC-3
Format/Info : Audio Coding 3
Mode extension : CM (complete main)
Codec ID : 2000
Duration : 1h 23mn
Bit rate mode : Constant
Bit rate : 96.0 Kbps
Channel(s) : 1 channel
Channel positions : Front: C
Sampling rate : 48.0 KHz
Bit depth : 16 bits
Stream size : 57.2 MiB (4%)
Alignment : Split accross interleaves
Interleave, duration : 42 ms (1.00 video frame)
Interleave, preload duration : 500 ms
piratbit.pw



Скачать Через Париж через торрент http://pic.kartinco.top/images/6/qfpfj.jpg Скачать фильм Через Париж через торрент бесплантно в хорошем качестве Описание: Безработный шофер Мартен подрядился перетащить два чемодана контрабандной свинины через ночной Париж. Ему очень нужны деньги, и ... 9.9 10 7
Info! Золотая раздача, скачанное не засчитывается.
Торрент: Зарегистрирован [2013-11-30 20:09] · скачан: 84 раз
Статус: √ проверено
Размер: 1.45 GB
Как cкачать? Как скачать Через Париж через торрент | qTorrent


>> Регистрируемся здесь <<






Отзывы и комментарии о схеме читаем и пишем здесь: ---> Отзывы и комментарии о схеме

Новые благодарочки в телеграм довольных пользователей:
скриншот   скриншот   скриншот   скриншот   скриншот
    Дорогой пользователь! Огромная просьба, поблагодарите релизера, оцените раздачу и оставьте свои комментарий, если Вы скачали Через Париж через торрент бесплатно! Внесите свою лепту в развитие PiratBit!
    Комментировать посты могут только пользователи прошедшие не сложную регистрацию
    Показать сообщения:    

    Через Париж через торрент
    Скачать бесплатно Через Париж
    Через Париж скачать торрент
    Через Париж смотреть онлайн
    Cкачать фильм Через Париж бесплатно
    Через Париж скачать торрент в хорошем качестве
    Через Париж смотреть онлайн бесплатно в хорошем качестве


    Вы не можете начинать темы
    Вы не можете отвечать на сообщения
    Вы не можете редактировать свои сообщения
    Вы не можете удалять свои сообщения
    Вы не можете голосовать в опросах
    Вы не можете прикреплять файлы к сообщениям
    Вы можете скачивать файлы