новый адрес
Мега распродажа FORZA HORIZON 4 ULTIMATE+ВСЕ DLC+ОНЛАЙН всего за 499р. 349 руб. (супер цена). Внимание количество ограничено!!!

iTunes

1+1

iTunes

мы

iTunes

1

iTunes

Чернобыль

iTunes

Ральф против интернета

Лицензия

ПШазам

Лицензия

Оно 2

Лицензия

30
pack

ВАЖНО

!!Акция!!

Alien_RageХит недели

RePack

Resident Evil 21

ИГРА 18+

pack

RePack

jed

!!Акция!!

Alien_Rage

RePack

fifa19

RePack

Assassins Creed: Odyssey

RePack

NEED FOR SPEED™ PAYBACK

3 сезон

9 сезон

Бесстыжие 9 сезон

Все сериалы

все сериалы на PB.wtf

RePack

FAR CRY 5
Ребята, катастрофически не хватает 1900р. для оплаты серверов за Октябрь (всвязи с блокировками трафик упал в 3 раза), 1-2р., выручайте.
  

Разиня / The Sucker / Le corniaud (Жерар Ури / Gérard Oury) [1965, комедия, криминал, BDRip] [DUB] (СССР) piratbit.pw

Разиня через торрент piratbit.pw

Размер: 1.45 GB | Добавлен: 5 лет 11 мес. назад | Торрент скачан:135 раз
Скачать  

29-11-2013 21:05 Разиня Скачать торрент  


Разиня / Le Corniaud


Год выпуска: 1964
Выпущено: Франция, Италия
Жанр: Комедия, криминал
Продолжительность: 01:50:29
Перевод: Профессиональный (полное дублирование) [СССР]
Режиссер: Жерар Ури / Gérard Oury

В ролях: Бурвиль, Луи де Фюнес, Венантино Венантини, Анри Жене, Ландо Бюззанка, Мишель Галабрю, Вальтер Кьяри
Описание: Парижский работяга Антуан Марешаль решил провести летний отпуск в Италии. Но не успел он отъехать от дома, как в его машину врезался лимузин крупного мафиози Леопольда Сарояна. В качестве компенсации тот предложил Антуану поехать отдыхать в его роскошном белом "Кадиллаке", оборудованном телефоном и стереосистемой. Вне себя от счастья, он продолжает свое путешествие в Италию. Однако бесплатный сыр бывает только в мышеловке. Марешаль не подозревает, что его используют гангстеры во главе с Сарояном. Дареный автомобиль напичкан золотом и наркотиками, а на хвосте у Марешаля теперь сидят две соперничающие банды контрабандистов...
Качество: BDRip [Исх. BD-Remux / 1080p]
Формат: AVI
Видео кодек: XviD
Аудио кодек: AC3
Видео: 720x304 (2.37:1), 24 fps, XviD build 65 ~1679 kbps avg, 0.32 bit/pixel
Аудио: 48 kHz, AC3 Dolby Digital, 2/0 (L,R), ~192.00 kbps avg
Релиз: [img]https://piratbit.top/goo.php?url=https://piratbit.top/goo.php?url=http://imageban.ru/out/2009/11/03/8ef018797a161dbcd4daec609e9f1048.png[/img]
Автор: yaroslaigor
Формат : AVI
Формат/Информация : Audio Video Interleave
Размер файла : 1,45 Гбайт
Продолжительность : 1 ч. 50 м.
Общий поток : 1881 Кбит/сек
Название фильма : Разиня / The Sucker / Le corniaud (1965) BDRip
Режиссёр : yaroslaigor
Жанр : комедия, криминал
Программа кодирования : VirtualDubMod 1.5.10.2 (build 2542/release)
Примечание : 21.11.2013

Видео
Идентификатор : 0
Формат : MPEG-4 Visual
Профиль формата : Advanced Simple@L5
Параметр BVOP формата : 1
Параметр QPel формата : Нет
Параметр GMC формата : Без точки перехода
Параметр матрицы формата : Выборочная
Идентификатор кодека : XVID
Идентификатор кодека/Подсказка : XviD
Продолжительность : 1 ч. 50 м.
Битрейт : 1679 Кбит/сек
Ширина : 720 пикселей
Высота : 304 пикселя
Соотношение сторон : 2,35:1
Частота кадров : 24,000 кадра/сек
Цветовое пространство : YUV
Субдискретизация насыщенности : 4:2:0
Битовая глубина : 8 бит
Тип развёртки : Прогрессивная
Метод сжатия : С потерями
Бит/(Пиксели*Кадры) : 0.320
Размер потока : 1,30 Гбайт (89%)
Библиотека кодирования : XviD 65

Аудио
Идентификатор : 1
Формат : AC-3
Формат/Информация : Audio Coding 3
Расширение режима : CM (complete main)
Параметр Endianness формата : Big
Идентификатор кодека : 2000
Продолжительность : 1 ч. 50 м.
Вид битрейта : Постоянный
Битрейт : 192 Кбит/сек
Каналы : 2 канала
Расположение каналов : Front: L R
Частота : 48,0 КГц
Битовая глубина : 16 бит
Метод сжатия : С потерями
Размер потока : 152 Мбайт (10%)
Выравнивание : Разделение по промежуткам
Продолжительность промежутка : 42 мс. (1,00 видеокадр)
Время предзагрузки промежутка : 500 мс.


piratbit.pw



Скачать Разиня через торрент http://pic.kartinco.top/images/6/347l1.jpg Скачать фильм Разиня через торрент бесплантно в хорошем качестве Описание: Парижский работяга Антуан Марешаль решил провести летний отпуск в Италии. Но не успел он отъехать от дома, как в его машину ... 10 10 8
Info! Золотая раздача, скачанное не засчитывается.
Торрент: Зарегистрирован [2013-11-29 21:05] · скачан: 135 раз
Статус: √ проверено
Размер: 1.45 GB
Как cкачать? Как скачать Разиня через торрент | qTorrent


>> Регистрируемся здесь <<






Отзывы и комментарии о схеме читаем и пишем здесь: ---> Отзывы и комментарии о схеме

Новые благодарочки в телеграм довольных пользователей:
скриншот   скриншот   скриншот   скриншот   скриншот

30-11-2013 00:15 Разиня Скачать торрент  

Заслуженное Золото и красивый постерpiratbit.pw



30-11-2013 08:05 Разиня Скачать торрент  

Demonessa писал(а):

Заслуженное Золото и красивый постер

отличнейшая комедия с бесподобным Луи де Фюнесом yespiratbit.pw



01-12-2013 01:53 Разиня Скачать торрент  

На это надо посмотреть!piratbit.pw



    Дорогой пользователь! Огромная просьба, поблагодарите релизера, оцените раздачу и оставьте свои комментарий, если Вы скачали Разиня через торрент бесплатно! Внесите свою лепту в развитие PiratBit!
    Комментировать посты могут только пользователи прошедшие не сложную регистрацию
    Показать сообщения:    

    Разиня через торрент
    Скачать бесплатно Разиня
    Разиня скачать торрент
    Разиня смотреть онлайн
    Cкачать фильм Разиня бесплатно
    Разиня скачать торрент в хорошем качестве
    Разиня смотреть онлайн бесплатно в хорошем качестве


    Вы не можете начинать темы
    Вы не можете отвечать на сообщения
    Вы не можете редактировать свои сообщения
    Вы не можете удалять свои сообщения
    Вы не можете голосовать в опросах
    Вы не можете прикреплять файлы к сообщениям
    Вы можете скачивать файлы