1 сезон

1 сезон

iTunes

1

КиноПоиск HD

Кинопоиск HD

iTunes

13

1 сезон

RePack

30

Deluxe

ВАЖНО

ИГРА 18+

pack

RePack

MK11
pack

Легкие деньги

RePack

jed

RePack

fifa19

RePack

RDR2

RePack

NEED FOR SPEED™ PAYBACK

4 сезон

9 сезон

Бесстыжие 9 сезон

Все сериалы

все сериалы на PB.wtf

RePack

FAR CRY 5
  
Magnet ссылка

Прыжок / Jump! (Джошуа Синклер / Joshua Sinclair) [ 2007 , Австрия , драма , DVDRip ]Профессиональный (многоголосый, закадровый) piratbit.pw

Прыжок через торрент piratbit.pw

Размер: 1.37 GB | Добавлен: 7 лет 5 мес. назад | Торрент скачан:9 раз
Скачать  

08-11-2013 08:04 Прыжок Скачать торрент  

Прыжок / Jump!
Год выпуска: 2007
Страна: Австрия
Жанр: драма
Продолжительность: 01:42:45
Перевод: Профессиональный (многоголосый, закадровый)
Субтитры: Нет

Режиссер: Джошуа Синклер / Joshua Sinclair
Сценарий: Райан Джеймс / Ryan James, Джошуа Синклер / Joshua Sinclair
Продюсер: Джошуа Синклер / Joshua Sinclair, Лилли Бергер / Lilly Berger, Норберт Блеха / Norbert Blecha, Ричард Джонсон / Richard Johnson, Oliver Zehetner-Loffredo
Оператор: Джанлоренцо Батталья / Gianlorenzo Battaglia
Композитор: Кевин Каска / Kevin Kaska

Патрик Суэйзи (Richard Pressburger), Бен Сильверстоун (Phillippe Halsman), Мартина МакКачон (Liuba Halsman), Хайнц Хёниг (Morduch Halsman), Аня Крузе (Ita Halsman), Хайнц Трикснер (Emil Groeschel), Кристоф Шоберсбергер (Siegfried Hohenleitner), Ричард Джонсон (Judge Larcher), Вольфганг Фирек (Leopold Zipperer), Ади Хиршаль (Dr. Stein), Alf Beinell (Franz Eicher), Кристиан Шеффер (Johan Weiler)

Описание:Австрия, 1928 год. В суде расследуется дело, еврейский юноша Филипп Халсман обвиняется в убийстве собственного отца. В Австрии, где проходит процесс, царят антисемитские настроения, которые не сулят Филлипу объективности в этом деле и самый суровый приговор кажется неминуемым. Помочь юноше берется местный адвокат Ричард Прессбургер...

Рейтинг
kinopoisk.ru: 6.885 (237)
imdb.com: 5.70 (438)

Качество: DVDRip
Формат: AVI
Видео кодек: XviD
Аудио кодек: AC3
Видео: XviD, 720x416 (16:9), 1450 kbps, 25 fps, 0,194 bpp
Аудио: русский / AC3 / 5.1 / 48 kHz / 448 kbps / 16 bit



Общее
Кол-во : 279
Кол-во потоков такого типа : 1
Тип потока : General
Тип потока : Общее
Идентификатор типа потока : 0
Inform : AVI: 1,37 Гбайт, 1 ч. 42 м.
Кол-во видеопотоков : 1
Кол-во аудиопотоков : 1
Video_Format_List : MPEG-4 Visual
Video_Format_WithHint_List : MPEG-4 Visual (XviD)
Видеокодеки : XviD
Audio_Format_List : AC-3
Audio_Format_WithHint_List : AC-3
Аудиокодеки : AC3
Audio_Language_List : Russian
Полное имя : D:ФильмыПрыжок.avi
Имя папки : D:Фильмы
Имя файла : Прыжок
Расширение : avi
Формат : AVI
Формат : AVI
Формат/Информация : Audio Video Interleave
Формат/Используется в : avi
Коммерческое название : AVI
Интернет-тип носителя : video/vnd.avi
Чередующаяся : Yes
Кодек : AVI
Кодек : AVI
Кодек/Информация : Audio Video Interleave
Кодек/Используется в : avi
Размер файла : 1468524544
Размер файла : 1,37 Гбайт
Размер файла : 1 Гбайт
Размер файла : 1,4 Гбайт
Размер файла : 1,37 Гбайт
Размер файла : 1,368 Гбайт
Продолжительность : 6165400
Продолжительность : 1 ч. 42 м.
Продолжительность : 1 ч. 42 м. 45 с. 400 мс.
Продолжительность : 1 ч. 42 м.
Продолжительность : 01:42:45.400
Общий поток : 1905504
Общий поток : 1906 Кбит/сек
Размер потока : 5329838
Размер потока : 5,08 Мбайт (0%)
Размер потока : 5 Мбайт
Размер потока : 5,1 Мбайт
Размер потока : 5,08 Мбайт
Размер потока : 5,083 Мбайт
Размер потока : 5,08 Мбайт (0%)
Пропорции потока : 0.00363
Дата файла : UTC 2013-11-08 03:53:42.650
Дата файла (местная) : 2013-11-08 10:53:42.650
Дата изменения файла : UTC 2013-11-08 06:30:35.360
Дата изменения файла (местная) : 2013-11-08 13:30:35.360
Программа кодирования : VirtualDubMod 1.5.4.1 (build 2178/release)
Библиотека кодирования : VirtualDubMod build 2178/release
Библиотека кодирования : VirtualDubMod build 2178/release

Видео
Кол-во : 248
Кол-во потоков такого типа : 1
Тип потока : Video
Тип потока : Видео
Идентификатор типа потока : 0
Inform : 1451 Кбит/сек, 720*416 (1,731), в 25,000 кадров/сек, MPEG-4 Visual (XviD) (Advanced Simple@L5) (BVOP1 / Custom Matrix)
Идентификатор : 0
Идентификатор : 0
Формат : MPEG-4 Visual
Коммерческое название : MPEG-4 Visual
Профиль формата : Advanced Simple@L5
Настройки формата : BVOP1 / Custom Matrix
Параметр BVOP формата : 1
Параметр BVOP формата : 1
Параметр QPel формата : No
Параметр QPel формата : Нет
Параметр GMC формата : 0
Параметр GMC формата : Без точки перехода
Параметр матрицы формата : Custom
Параметр матрицы формата : Выборочная
Format_Settings_Matrix_Data : 0809090A0B0A0B0C0C0B0C0D0E0D0C0E0F10100F0E101011121110101212131414131212141516171615141618191918161A1C1D1C1A1E22221E262E26343448 / 1010101111111111111112121312121313141413131514151615141517161718181716171818191A1918181B1C1D1D1C1B202428242028303028343C3440406A
Интернет-тип носителя : video/MP4V-ES
Идентификатор кодека : XVID
Идентификатор кодека/Подсказка : XviD
Идентификатор кодека/Ссылка : http://mediaarea.net/XVID
Кодек : XVID
Кодек : XviD
Кодек/Семейство : MPEG-4V
Кодек/Информация : XviD project
Кодек/Ссылка : http://www.xvid.org/Downloads.15.0.html
Кодек/CC : XVID
Профиль кодека : Advanced Simple@L5
Настройки кодека : BVOP / Custom Matrix
Параметр пакетного потока данных кодека : No
Параметр BVOP кодека : Yes
Параметр QPel кодека : No
Параметр GMC кодека : 0
Параметр GMC кодека : Без точки перехода
Параметр матрицы кодека : Custom
Продолжительность : 6165400
Продолжительность : 1 ч. 42 м.
Продолжительность : 1 ч. 42 м. 45 с. 400 мс.
Продолжительность : 1 ч. 42 м.
Продолжительность : 01:42:45.400
Битрейт : 1450625
Битрейт : 1451 Кбит/сек
Ширина : 720
Ширина : 720 пикселей
Высота : 416
Высота : 416 пикселей
Пропорции пикселя : 1.000
Соотношение сторон : 1.731
Соотношение сторон : 1,731
Частота кадров : 25.000
Частота кадров : 25,000 кадров/сек
Счётчик кадров : 154135
Разрешение : 8
Разрешение : 8 бит
Колориметрия : 4:2:0
Цветовое пространство : YUV
Субдискретизация насыщенности : 4:2:0
Битовая глубина : 8
Битовая глубина : 8 бит
Тип развёртки : Progressive
Тип развёртки : Прогрессивная
Переплетение : PPF
Переплетение : Прогрессивная
Метод сжатия : Lossy
Метод сжатия : С потерями
Бит/(Пиксели*Кадры) : 0.194
Задержка : 0
Задержка : 00:00:00.000
Размер потока : 1117960530
Размер потока : 1,04 Гбайт (76%)
Размер потока : 1 Гбайт
Размер потока : 1,0 Гбайт
Размер потока : 1,04 Гбайт
Размер потока : 1,041 Гбайт
Размер потока : 1,04 Гбайт (76%)
Пропорции потока : 0.76128
Библиотека кодирования : XviD0047
Библиотека кодирования : XviD 1.2.0.dev47 (UTC 2006-11-01)
Библиотека кодирования/Имя : XviD
Библиотека кодирования/Version : 1.2.0.dev47
Библиотека кодирования/Дата : UTC 2006-11-01

Аудио
Кол-во : 245
Кол-во потоков такого типа : 1
Тип потока : Audio
Тип потока : Аудио
Идентификатор типа потока : 0
Inform : Russian, 448 Кбит/сек, 48,0 КГц, 16 бит, 6 каналов, AC-3
Идентификатор : 1
Идентификатор : 1
Формат : AC-3
Формат/Информация : Audio Coding 3
Коммерческое название : AC-3
Расширение режима : CM (complete main)
Параметр Endianness формата : Big
Идентификатор кодека : 2000
Кодек : AC3
Кодек : AC3
Кодек/Семейство : AC3
Кодек/Информация : Dolby AC3
Кодек/CC : 2000
Продолжительность : 6164896
Продолжительность : 1 ч. 42 м.
Продолжительность : 1 ч. 42 м. 44 с. 896 мс.
Продолжительность : 1 ч. 42 м.
Продолжительность : 01:42:44.896
Вид битрейта : CBR
Вид битрейта : Постоянный
Битрейт : 448000
Битрейт : 448 Кбит/сек
Каналы : 6
Каналы : 6 каналов
Расположение каналов : Front: L C R, Side: L R, LFE
Расположение каналов : 3/2/0.1
Частота : 48000
Частота : 48,0 КГц
Количество образцов : 295915008
Разрешение : 16
Разрешение : 16 бит
Битовая глубина : 16
Битовая глубина : 16 бит
Метод сжатия : Lossy
Метод сжатия : С потерями
Задержка : 0
Задержка : 00:00:00.000
Задержка в оригинале : Stream
Задержка в оригинале : 'Сырой' поток
Задержка видео : 0
Задержка видео : 0
Размер потока : 345234176
Размер потока : 329 Мбайт (24%)
Размер потока : 329 Мбайт
Размер потока : 329 Мбайт
Размер потока : 329 Мбайт
Размер потока : 329,2 Мбайт
Размер потока : 329 Мбайт (24%)
Пропорции потока : 0.23509
Выравнивание : Split
Выравнивание : Разделение по промежуткам
Продолжительность промежутка : 2.40
Продолжительность промежутка : 96
Продолжительность промежутка : 96 мс. (2,40 видеокадра)
Время предзагрузки промежутка : 96
Время предзагрузки промежутка : 96 мс.
Язык : ru
Язык : Russian
Язык : Russian
Язык : ru
Язык : rus
Язык : ru
dialnorm : -27
dialnorm/String : -27 dB
compr : -0.28
compr/String : -0.28 dB
dynrng : -0.86
dynrng/String : -0.86 dB
bsid : 8
dialnorm_Average : -27
dialnorm_Average/String : -27 dB
dialnorm_Minimum : -27
dialnorm_Minimum/String : -27 dB
dialnorm_Maximum : -27
dialnorm_Maximum/String : -27 dB
dialnorm_Count : 899
compr_Average : 1.38
compr_Average/String : 1.38 dB
compr_Minimum : -6.30
compr_Minimum/String : -6.30 dB
compr_Maximum : 5.74
compr_Maximum/String : 5.74 dB
compr_Count : 899
dynrng_Average : 13.45
dynrng_Average/String : 13.45 dB
dynrng_Minimum : -22.36
dynrng_Minimum/String : -22.36 dB
dynrng_Maximum : 23.94
dynrng_Maximum/String : 23.94 dB
dynrng_Count : 899



piratbit.pw



Скачать Прыжок через торрент http://s003.radikal.ru/i204/1311/ac/ec8d3cf6f327.jpg Скачать фильм Прыжок через торрент бесплантно в хорошем качестве Описание:Австрия, 1928 год. В суде расследуется дело, еврейский юноша Филипп Халсман обвиняется в убийстве собственного отца. В Австрии, ... 10 10 3
Info! Золотая раздача, скачанное не засчитывается.
Торрент: Зарегистрирован [2013-11-08 08:04] · скачан: 9 раз
Статус: √ проверено
Размер: 1.37 GB
Как cкачать? Как скачать Прыжок через торрент | UTorrent

28-11-2019 20:33  

Отключить всю рекламу на сайте


    Дорогой пользователь! Огромная просьба, поблагодарите релизера, оцените раздачу и оставьте свои комментарий, если Вы скачали Прыжок через торрент бесплатно! Внесите свою лепту в развитие PiratBit!
    Комментировать посты могут только пользователи прошедшие не сложную регистрацию
    Показать сообщения:    

    Прыжок через торрент
    Скачать бесплатно Прыжок
    Прыжок скачать торрент
    Прыжок смотреть онлайн
    Cкачать фильм Прыжок бесплатно
    Прыжок скачать торрент в хорошем качестве
    Прыжок смотреть онлайн бесплатно в хорошем качестве


    Вы не можете начинать темы
    Вы не можете отвечать на сообщения
    Вы не можете редактировать свои сообщения
    Вы не можете удалять свои сообщения
    Вы не можете голосовать в опросах
    Вы не можете прикреплять файлы к сообщениям
    Вы можете скачивать файлы