новый адрес
Ссылка на приватное зеркало всего за 1$. Внимание количество ограничено!!!

iTunes

1+1

iTunes

мы

WEB-DL

1

iTunes

Чернобыль

iTunes

Ральф против интернета

Лицензия

ПШазам

Лицензия

Оно 2

Лицензия

30
pack

Вам бонус

ВАЖНО

!!Акция!!

Alien_RageХит недели

RePack

Resident Evil 21

ИГРА 18+

pack

RePack

jed

!!Акция!!

Alien_Rage

RePack

fifa19

RePack

Assassins Creed: Odyssey

RePack

NEED FOR SPEED™ PAYBACK

3 сезон

9 сезон

Бесстыжие 9 сезон

Все сериалы

все сериалы на PB.wtf

RePack

FAR CRY 5
Ребята, катастрофически не хватает 1900р. для оплаты серверов за Октябрь (всвязи с блокировками трафик упал в 3 раза), 1-2р., выручайте.
  

Голый пистолет: Трилогия / The Naked Gun: Trilogy (Дэвид Цукер / David Zucker)[1988-1994г., комедия, HDTVRip 720p, Профессиональный многоголосый] piratbit.pw

Голый пистолет: Трилогия через торрент piratbit.pw

Раздают: 1 [ 0 KB/s ]
Размер: 15.63 GB | Добавлен: 6 лет 1 мес. назад | Торрент скачан:392 раза
Скачать  

04-11-2013 03:41 Голый пистолет: Трилогия Скачать торрент  

Голый пистолет / The Naked Gun: From the Files of Police Squad!
Год выпуска: 1988
Страна: США
Слоган: «You've read the ad, now see the movie!»
Жанр: боевик, мелодрама, комедия, криминал
Продолжительность: 01:25:00
Перевод: Профессиональный (многоголосый, закадровый)
Авторский (Михалев Алексей)
Авторский (Гланц Петр)
Субтитры: Нет

Режиссер:Дэвид Цукер / David Zucker
Сценарий:Джерри Цукер / Jerry Zucker, Джим Абрахамс / Jim Abrahams, Дэвид Цукер / David Zucker, Пэт Профт / Pat Proft
Продюсер:Роберт К. Уайсс / Robert K. Weiss, Джим Абрахамс / Jim Abrahams, Кевин Марси / Kevin Marcy, Джон Д. Шофилд / John D. Schofield, Дэвид Цукер / David Zucker
Оператор:Роберт М. Стивенс / Robert M. Stevens
Композитор:Айра Ньюборн / Ira Newborn

Лесли Нильсен (Frank Drebin), Присцилла Пресли (Jane Spencer), Рикардо Монтальбан (Vincent Ludwig), Джордж Кеннеди (Ed Hocken), О. Дж. Симпсон (Nordberg), Сьюзэн Бьюбиан (Mrs. Nordberg), Нэнси Марчанд (Mayor), Рэй Бирк (Pahpshmir), Жанетт Чарльз (Queen Elizabeth II), Эд Уильямс (Ted Olsen), Тайни Рон (Al), Вейрд Эл Янкович («Weird Al»)

Описание:
Самый некомпетентный полицейский, лейтенант Фрэнк Дребин, должен в одиночку противостоять международному заговору, цель которого - погубить королеву Елизавету II. Ко всеобщему удивлению и радости, глупейший из глупых лейтенант Дребин разберётся со всеми врагами Её Величества так лихо, как не снилось и знаменитому агенту 007.

Рейтинг
kinopoisk.ru: 7.304 (19 314)
imdb.com: 7.60 (76 607)
MPAA: PG-13 - Детям до 13 лет просмотр не желателен

Качество: HDRip720
Формат: MKV
Видео кодек: AVC
Аудио кодек: AC3/DTS
Видео: AVC, 1280x720 (16:9), 6977 kbps, 23,976 fps, 0,316 bpp
Аудио №1: английский / AC3 / 2.0 / 48 kHz / 384 kbps / 16 bit
Аудио №2: русский / DTS / 5.1 / 48 kHz / 755 kbps / 24 bit
Аудио №3: русский / AC3 / 5.1 / 48 kHz / 448 kbps / 16 bit Гланц
Аудио №4: русский / AC3 / 5.1 / 48 kHz / 448 kbps / 16 bit Михалев



Общее
Кол-во : 284
Кол-во потоков такого типа : 1
Тип потока : General
Тип потока : Общее
Идентификатор типа потока : 0
Inform : Matroska: 5,35 Гбайт, 1 ч. 25 м.
Уникальный идентификатор : 208486605139974963437034723578633228943
Уникальный идентификатор : 208486605139974963437034723578633228943 (0x9CD90F40EA31B2CA889B92AC2157928F)
Кол-во видеопотоков : 1
Кол-во аудиопотоков : 4
Video_Format_List : AVC
Video_Format_WithHint_List : AVC
Видеокодеки : AVC
Video_Language_List : English
Audio_Format_List : AC-3 / DTS / AC-3 / AC-3
Audio_Format_WithHint_List : AC-3 / DTS / AC-3 / AC-3
Аудиокодеки : AC3 / DTS / AC3 / AC3
Audio_Language_List : English / Russian / Russian / Russian
Полное имя : H:ТОРРЕНТЫNaked Gun TrilogyПистолет.mkv
Имя папки : H:ТОРРЕНТЫNaked Gun Trilogy
Имя файла : Пистолет
Расширение : mkv
Формат : Matroska
Формат : Matroska
Формат/Ссылка : http://packs.matroska.org/
Формат/Используется в : mkv mk3d mka mks
Коммерческое название : Matroska
Версия формата : Version 1
Кодек : Matroska
Кодек : Matroska
Кодек/Ссылка : http://packs.matroska.org/
Кодек/Используется в : mkv mk3d mka mks
Размер файла : 5746144084
Размер файла : 5,35 Гбайт
Размер файла : 5 Гбайт
Размер файла : 5,4 Гбайт
Размер файла : 5,35 Гбайт
Размер файла : 5,352 Гбайт
Продолжительность : 5100768
Продолжительность : 1 ч. 25 м.
Продолжительность : 1 ч. 25 м. 0 с. 768 мс.
Продолжительность : 1 ч. 25 м.
Продолжительность : 01:25:00.768
Общий поток : 9012202
Общий поток : 9012 Кбит/сек
Размер потока : 114348883
Размер потока : 109 Мбайт (2%)
Размер потока : 109 Мбайт
Размер потока : 109 Мбайт
Размер потока : 109 Мбайт
Размер потока : 109,1 Мбайт
Размер потока : 109 Мбайт (2%)
Пропорции потока : 0.01990
Дата кодирования : UTC 2008-10-09 23:48:48
Дата файла : UTC 2013-11-04 02:13:32.587
Дата файла (местная) : 2013-11-04 09:13:32.587
Дата изменения файла : UTC 2013-11-04 02:33:36.100
Дата изменения файла (местная) : 2013-11-04 09:33:36.100
Программа кодирования : mkvmerge v2.3.0 ('Freak U') built on Sep 8 2008 18:32:16
Библиотека кодирования : libebml v0.7.7 + libmatroska v0.8.1
Библиотека кодирования : libebml v0.7.7 + libmatroska v0.8.1

Видео
Кол-во : 263
Кол-во потоков такого типа : 1
Тип потока : Video
Тип потока : Видео
Идентификатор типа потока : 0
StreamOrder : 0
Inform : English, 6977 Кбит/сек, 1280*720 (16:9), в 23,976 кадра/сек, AVC (High@L5.1) (CABAC / 6 Ref Frames)
Идентификатор : 1
Идентификатор : 1
Уникальный идентификатор : 1
Формат : AVC
Формат/Информация : Advanced Video Codec
Формат/Ссылка : http://developers.videolan.org/x264.html
Коммерческое название : AVC
Профиль формата : High@L5.1
Настройки формата : CABAC / 6 Ref Frames
Параметр CABAC формата : Yes
Параметр CABAC формата : Да
Параметр ReFrames формата : 6
Параметр ReFrames формата : 6 кадров
Интернет-тип носителя : video/H264
Идентификатор кодека : V_MPEG4/ISO/AVC
Идентификатор кодека/Ссылка : http://ffdshow-tryout.sourceforge.net/
Кодек : V_MPEG4/ISO/AVC
Кодек : AVC
Кодек/Семейство : AVC
Кодек/Информация : Advanced Video Codec
Кодек/Ссылка : http://ffdshow-tryout.sourceforge.net/
Профиль кодека : High@L5.1
Настройки кодека : CABAC / 6 Ref Frames
Параметр CABAC кодека : Yes
Codec_Settings_RefFrames : 6
Продолжительность : 5100767
Продолжительность : 1 ч. 25 м.
Продолжительность : 1 ч. 25 м. 0 с. 767 мс.
Продолжительность : 1 ч. 25 м.
Продолжительность : 01:25:00.767
Битрейт : 6977000
Битрейт : 6977 Кбит/сек
Ширина : 1280
Ширина : 1280 пикселей
Высота : 720
Высота : 720 пикселей
Пропорции пикселя : 1.000
Соотношение сторон : 1.778
Соотношение сторон : 16:9
Режим частоты кадров : CFR
Режим частоты кадров : Постоянный
Частота кадров : 23.976
Частота кадров : 23,976 кадра/сек
Счётчик кадров : 122296
Разрешение : 8
Разрешение : 8 бит
Колориметрия : 4:2:0
Цветовое пространство : YUV
Субдискретизация насыщенности : 4:2:0
Битовая глубина : 8
Битовая глубина : 8 бит
Тип развёртки : Progressive
Тип развёртки : Прогрессивная
Переплетение : PPF
Переплетение : Прогрессивная
Бит/(Пиксели*Кадры) : 0.316
Задержка : 0
Задержка : 00:00:00.000
Задержка в оригинале : Container
Задержка в оригинале : Контейнер
Размер потока : 4334606139
Размер потока : 4,04 Гбайт (75%)
Размер потока : 4 Гбайт
Размер потока : 4,0 Гбайт
Размер потока : 4,04 Гбайт
Размер потока : 4,037 Гбайт
Размер потока : 4,04 Гбайт (75%)
Пропорции потока : 0.75435
Библиотека кодирования : x264 - core 46 svn-516
Библиотека кодирования : x264 core 46 svn-516
Библиотека кодирования/Имя : x264
Библиотека кодирования/Version : core 46 svn-516
Настройки программы : cabac=1 / ref=3 / deblock=1:0:0 / analyse=0x3:0x133 / me=hex / subme=6 / brdo=1 / mixed_ref=1 / me_range=16 / chroma_me=1 / trellis=1 / 8x8dct=1 / cqm=0 / chroma_qp_offset=0 / slices=2 / nr=0 / decimate=1 / bframes=3 / b_pyramid=1 / b_adapt=1 / b_bias=0 / direct=1 / wpredb=1 / bime=1 / keyint=250 / keyint_min=25 / scenecut=40 / rc=2pass / bitrate=6977 / ratetol=1.0 / rceq='blurCplx^(1-qComp)' / qcomp=0.60 / qpmin=10 / qpmax=51 / qpstep=4 / cplxblur=20.0 / qblur=0.5 / ip_ratio=1.40 / pb_ratio=1.30
Язык : en
Язык : English
Язык : English
Язык : en
Язык : eng
Язык : en
Default : Yes
Default : Да
Forced : No
Forced : Нет

Аудио #1
Кол-во : 253
Кол-во потоков такого типа : 4
Тип потока : Audio
Тип потока : Аудио
Идентификатор типа потока : 0
Позиция идентификатора типа потока : 1
StreamOrder : 1
Inform : English, 384 Кбит/сек, 48,0 КГц, 16 бит, 2 канала, AC-3
Идентификатор : 2
Идентификатор : 2
Уникальный идентификатор : 3520072334
Формат : AC-3
Формат/Информация : Audio Coding 3
Коммерческое название : AC-3
Расширение режима : CM (complete main)
Параметр Endianness формата : Big
Идентификатор кодека : A_AC3
Кодек : AC3
Кодек : AC3
Кодек/Семейство : AC3
Кодек/Информация : Dolby AC3
Продолжительность : 5100768
Продолжительность : 1 ч. 25 м.
Продолжительность : 1 ч. 25 м. 0 с. 768 мс.
Продолжительность : 1 ч. 25 м.
Продолжительность : 01:25:00.768
Вид битрейта : CBR
Вид битрейта : Постоянный
Битрейт : 384000
Битрейт : 384 Кбит/сек
Каналы : 2
Каналы : 2 канала
Расположение каналов : Front: L R
Расположение каналов : 2/0/0
Частота : 48000
Частота : 48,0 КГц
Количество образцов : 244836864
Разрешение : 16
Разрешение : 16 бит
Битовая глубина : 16
Битовая глубина : 16 бит
Метод сжатия : Lossy
Метод сжатия : С потерями
Задержка : 0
Задержка : 00:00:00.000
Задержка в оригинале : Container
Задержка в оригинале : Контейнер
Задержка видео : 0
Задержка видео : 0
Размер потока : 244836864
Размер потока : 233 Мбайт (4%)
Размер потока : 233 Мбайт
Размер потока : 233 Мбайт
Размер потока : 233 Мбайт
Размер потока : 233,5 Мбайт
Размер потока : 233 Мбайт (4%)
Пропорции потока : 0.04261
Заголовок : AC3 2.0 384 Kbps
Язык : en
Язык : English
Язык : English
Язык : en
Язык : eng
Язык : en
Default : No
Default : Нет
Forced : No
Forced : Нет
bsid : 6
dialnorm : -27
dialnorm/String : -27 dB
compr : 6.02
compr/String : 6.02 dB
dynrng : 6.02
dynrng/String : 6.02 dB
dsurmod : 0
acmod : 2
lfeon : 0
dialnorm_Average : -27
dialnorm_Average/String : -27 dB
dialnorm_Minimum : -27
dialnorm_Minimum/String : -27 dB
dialnorm_Maximum : -27
dialnorm_Maximum/String : -27 dB
dialnorm_Count : 2
compr_Average : 6.02
compr_Average/String : 6.02 dB
compr_Minimum : 6.02
compr_Minimum/String : 6.02 dB
compr_Maximum : 6.02
compr_Maximum/String : 6.02 dB
compr_Count : 2
dynrng_Average : 6.02
dynrng_Average/String : 6.02 dB
dynrng_Minimum : 6.02
dynrng_Minimum/String : 6.02 dB
dynrng_Maximum : 6.02
dynrng_Maximum/String : 6.02 dB
dynrng_Count : 2

Аудио #2
Кол-во : 222
Кол-во потоков такого типа : 4
Тип потока : Audio
Тип потока : Аудио
Идентификатор типа потока : 1
Позиция идентификатора типа потока : 2
StreamOrder : 2
Inform : Russian, 755 Кбит/сек, 48,0 КГц, 24 бит, 6 каналов, DTS
Идентификатор : 3
Идентификатор : 3
Уникальный идентификатор : 1227019683
Формат : DTS
Формат/Информация : Digital Theater Systems
Коммерческое название : DTS
Режим : 16
Параметр Endianness формата : Big
Идентификатор кодека : A_DTS
Кодек : DTS
Кодек : DTS
Кодек/Семейство : DTS
Продолжительность : 5100768
Продолжительность : 1 ч. 25 м.
Продолжительность : 1 ч. 25 м. 0 с. 768 мс.
Продолжительность : 1 ч. 25 м.
Продолжительность : 01:25:00.768
Вид битрейта : CBR
Вид битрейта : Постоянный
Битрейт : 754500
Битрейт : 755 Кбит/сек
Каналы : 6
Каналы : 6 каналов
Расположение каналов : Front: L C R, Side: L R, LFE
Расположение каналов : 3/2/0.1
Частота : 48000
Частота : 48,0 КГц
Количество образцов : 244836864
Разрешение : 24
Разрешение : 24 бит
Битовая глубина : 24
Битовая глубина : 24 бит
Метод сжатия : Lossy
Метод сжатия : С потерями
Задержка : 0
Задержка : 00:00:00.000
Задержка в оригинале : Container
Задержка в оригинале : Контейнер
Задержка видео : 0
Задержка видео : 0
Размер потока : 481066182
Размер потока : 459 Мбайт (8%)
Размер потока : 459 Мбайт
Размер потока : 459 Мбайт
Размер потока : 459 Мбайт
Размер потока : 458,8 Мбайт
Размер потока : 459 Мбайт (8%)
Пропорции потока : 0.08372
Заголовок : dts 5.1 768 Kbps Mngl
Язык : ru
Язык : Russian
Язык : Russian
Язык : ru
Язык : rus
Язык : ru
Default : Yes
Default : Да
Forced : No
Forced : Нет

Аудио #3
Кол-во : 252
Кол-во потоков такого типа : 4
Тип потока : Audio
Тип потока : Аудио
Идентификатор типа потока : 2
Позиция идентификатора типа потока : 3
StreamOrder : 3
Идентификатор : 4
Идентификатор : 4
Уникальный идентификатор : 2000146066
Формат : AC-3
Формат/Информация : Audio Coding 3
Коммерческое название : AC-3
Расширение режима : CM (complete main)
Параметр Endianness формата : Big
Идентификатор кодека : A_AC3
Кодек : AC3
Кодек : AC3
Кодек/Семейство : AC3
Кодек/Информация : Dolby AC3
Продолжительность : 5100768
Продолжительность : 1 ч. 25 м.
Продолжительность : 1 ч. 25 м. 0 с. 768 мс.
Продолжительность : 1 ч. 25 м.
Продолжительность : 01:25:00.768
Вид битрейта : CBR
Вид битрейта : Постоянный
Битрейт : 448000
Битрейт : 448 Кбит/сек
Каналы : 6
Каналы : 6 каналов
Расположение каналов : Front: L C R, Side: L R, LFE
Расположение каналов : 3/2/0.1
Частота : 48000
Частота : 48,0 КГц
Количество образцов : 244836864
Разрешение : 16
Разрешение : 16 бит
Битовая глубина : 16
Битовая глубина : 16 бит
Метод сжатия : Lossy
Метод сжатия : С потерями
Задержка : 0
Задержка : 00:00:00.000
Задержка в оригинале : Container
Задержка в оригинале : Контейнер
Задержка видео : 0
Задержка видео : 0
Размер потока : 285643008
Размер потока : 272 Мбайт (5%)
Размер потока : 272 Мбайт
Размер потока : 272 Мбайт
Размер потока : 272 Мбайт
Размер потока : 272,4 Мбайт
Размер потока : 272 Мбайт (5%)
Пропорции потока : 0.04971
Заголовок : AC3 5.1 448 Kbps Glanz
Язык : ru
Язык : Russian
Язык : Russian
Язык : ru
Язык : rus
Язык : ru
Default : No
Default : Нет
Forced : No
Forced : Нет
bsid : 8
dialnorm : -30
dialnorm/String : -30 dB
compr : 1.49
compr/String : 1.49 dB
dynrng : 1.02
dynrng/String : 1.02 dB
acmod : 7
lfeon : 1
dialnorm_Average : -30
dialnorm_Average/String : -30 dB
dialnorm_Minimum : -30
dialnorm_Minimum/String : -30 dB
dialnorm_Maximum : -30
dialnorm_Maximum/String : -30 dB
dialnorm_Count : 2
compr_Average : 1.49
compr_Average/String : 1.49 dB
compr_Minimum : 1.49
compr_Minimum/String : 1.49 dB
compr_Maximum : 1.49
compr_Maximum/String : 1.49 dB
compr_Count : 2
dynrng_Average : 1.02
dynrng_Average/String : 1.02 dB
dynrng_Minimum : 1.02
dynrng_Minimum/String : 1.02 dB
dynrng_Maximum : 1.02
dynrng_Maximum/String : 1.02 dB
dynrng_Count : 2

Аудио #4
Кол-во : 252
Кол-во потоков такого типа : 4
Тип потока : Audio
Тип потока : Аудио
Идентификатор типа потока : 3
Позиция идентификатора типа потока : 4
StreamOrder : 4
Идентификатор : 5
Идентификатор : 5
Уникальный идентификатор : 1660237200
Формат : AC-3
Формат/Информация : Audio Coding 3
Коммерческое название : AC-3
Расширение режима : CM (complete main)
Параметр Endianness формата : Big
Идентификатор кодека : A_AC3
Кодек : AC3
Кодек : AC3
Кодек/Семейство : AC3
Кодек/Информация : Dolby AC3
Продолжительность : 5100768
Продолжительность : 1 ч. 25 м.
Продолжительность : 1 ч. 25 м. 0 с. 768 мс.
Продолжительность : 1 ч. 25 м.
Продолжительность : 01:25:00.768
Вид битрейта : CBR
Вид битрейта : Постоянный
Битрейт : 448000
Битрейт : 448 Кбит/сек
Каналы : 6
Каналы : 6 каналов
Расположение каналов : Front: L C R, Side: L R, LFE
Расположение каналов : 3/2/0.1
Частота : 48000
Частота : 48,0 КГц
Количество образцов : 244836864
Разрешение : 16
Разрешение : 16 бит
Битовая глубина : 16
Битовая глубина : 16 бит
Метод сжатия : Lossy
Метод сжатия : С потерями
Задержка : 0
Задержка : 00:00:00.000
Задержка в оригинале : Container
Задержка в оригинале : Контейнер
Задержка видео : 0
Задержка видео : 0
Размер потока : 285643008
Размер потока : 272 Мбайт (5%)
Размер потока : 272 Мбайт
Размер потока : 272 Мбайт
Размер потока : 272 Мбайт
Размер потока : 272,4 Мбайт
Размер потока : 272 Мбайт (5%)
Пропорции потока : 0.04971
Заголовок : AC3 5.1 448 Kbps Mikhalev
Язык : ru
Язык : Russian
Язык : Russian
Язык : ru
Язык : rus
Язык : ru
Default : No
Default : Нет
Forced : No
Forced : Нет
bsid : 8
dialnorm : -30
dialnorm/String : -30 dB
compr : 1.49
compr/String : 1.49 dB
dynrng : 1.02
dynrng/String : 1.02 dB
acmod : 7
lfeon : 1
dialnorm_Average : -30
dialnorm_Average/String : -30 dB
dialnorm_Minimum : -30
dialnorm_Minimum/String : -30 dB
dialnorm_Maximum : -30
dialnorm_Maximum/String : -30 dB
dialnorm_Count : 2
compr_Average : 1.49
compr_Average/String : 1.49 dB
compr_Minimum : 1.49
compr_Minimum/String : 1.49 dB
compr_Maximum : 1.49
compr_Maximum/String : 1.49 dB
compr_Count : 2
dynrng_Average : 1.02
dynrng_Average/String : 1.02 dB
dynrng_Minimum : 1.02
dynrng_Minimum/String : 1.02 dB
dynrng_Maximum : 1.02
dynrng_Maximum/String : 1.02 dB
dynrng_Count : 2


Голый пистолет 2 1/2: Запах страха / The Naked Gun 2 1/2: The Smell of Fear
Год выпуска: 1991
Страна: США
Слоган: «Фрэнк Дребин вернулся. Просто смиритесь с этим»
Жанр: боевик, комедия, криминал
Продолжительность: 01:25:03
Перевод: Профессиональный (многоголосый, закадровый)
Авторский (Михалев Алексей)
Авторский (Гланц Петр)
Субтитры: Нет

Режиссер:Дэвид Цукер / David Zucker
Сценарий:Джим Абрахамс / Jim Abrahams, Дэвид Цукер / David Zucker, Джерри Цукер / Jerry Zucker, Пэт Профт / Pat Proft
Продюсер:Джим Абрахамс / Jim Abrahams, Майкл Юинг / Michael Ewing, Роберт ЛоКэш / Robert LoCash, Джил Неттер / Gil Netter, Джон Д. Шофилд / John D. Schofield
Оператор:Роберт М. Стивенс / Robert M. Stevens
Композитор:Айра Ньюборн / Ira Newborn, Джон Пэрис / Jon Paris

Лесли Нильсен (Lt. Frank Drebin), Присцилла Пресли (Jane Spencer), Джордж Кеннеди (Captain Ed Hocken), О. Дж. Симпсон (Nordberg), Робер Гуле (Quentin Hapsburg), Ричард Гриффитс (Dr. Albert S. Meinheimer, Earl Hacker), Жаклин Брукс (Commissioner Anabell Brumford), Энтони Джеймс (Hector Savage), Ллойд Бокнер (Terence Baggett), Тим О’Коннор (Donald Fenswick), Питер Марк Ричман (Arthur Dunwell), Эд Уильямс (Ted Olsen)

Описание:
Лейтенант полиции Френк Дребин по - прежнему трудится на ниве поимки нарушителей правопорядка, параллельно ища вопросы глобального свойства, например, о том, когда ему предстоит продемонстрировать все, на что он способен. И вот наступает ответственный момент. Некий злодей плетет страшные козни и замышляет уничтожить весь мир. Но не тут-то было. Храбрый полицейский как всегда начеку...

Рейтинг
kinopoisk.ru: 7.266 (10 261)
imdb.com: 6.70 (57 313)
MPAA: PG-13 - Детям до 13 лет просмотр не желателен

Качество: HDRip720
Формат: MKV
Видео кодек: AVC
Аудио кодек: AC3/DTS
Видео: AVC, 1280x720 (16:9), 6968 kbps, 23,976 fps, 0,315 bpp
Аудио №1: английский / AC3 / 5.1 / 48 kHz / 384 kbps / 16 bit
Аудио №2: русский / DTS / 5.1 / 48 kHz / 755 kbps / 24 bit
Аудио №3: русский / AC3 / 5.1 / 48 kHz / 448 kbps / 16 bit Гланц
Аудио №4: русский / AC3 / 5.1 / 48 kHz / 448 kbps / 16 bit Михалев



Общее
Кол-во : 284
Кол-во потоков такого типа : 1
Тип потока : General
Тип потока : Общее
Идентификатор типа потока : 0
Inform : Matroska: 5,35 Гбайт, 1 ч. 25 м.
Уникальный идентификатор : 218766933009798730105617899555022752469
Уникальный идентификатор : 218766933009798730105617899555022752469 (0xA494FA8CE7907BDEB0E9EF72DE44CAD5)
Кол-во видеопотоков : 1
Кол-во аудиопотоков : 4
Video_Format_List : AVC
Video_Format_WithHint_List : AVC
Видеокодеки : AVC
Video_Language_List : English
Audio_Format_List : AC-3 / DTS / AC-3 / AC-3
Audio_Format_WithHint_List : AC-3 / DTS / AC-3 / AC-3
Аудиокодеки : AC3 / DTS / AC3 / AC3
Audio_Language_List : English / Russian / Russian / Russian
Полное имя : H:ТОРРЕНТЫNaked Gun TrilogyПистолет2.mkv
Имя папки : H:ТОРРЕНТЫNaked Gun Trilogy
Имя файла : Пистолет2
Расширение : mkv
Формат : Matroska
Формат : Matroska
Формат/Ссылка : http://packs.matroska.org/
Формат/Используется в : mkv mk3d mka mks
Коммерческое название : Matroska
Версия формата : Version 1
Кодек : Matroska
Кодек : Matroska
Кодек/Ссылка : http://packs.matroska.org/
Кодек/Используется в : mkv mk3d mka mks
Размер файла : 5746602449
Размер файла : 5,35 Гбайт
Размер файла : 5 Гбайт
Размер файла : 5,4 Гбайт
Размер файла : 5,35 Гбайт
Размер файла : 5,352 Гбайт
Продолжительность : 5103990
Продолжительность : 1 ч. 25 м.
Продолжительность : 1 ч. 25 м. 3 с. 990 мс.
Продолжительность : 1 ч. 25 м.
Продолжительность : 01:25:03.990
Общий поток : 9007232
Общий поток : 9007 Кбит/сек
Размер потока : 114366447
Размер потока : 109 Мбайт (2%)
Размер потока : 109 Мбайт
Размер потока : 109 Мбайт
Размер потока : 109 Мбайт
Размер потока : 109,1 Мбайт
Размер потока : 109 Мбайт (2%)
Пропорции потока : 0.01990
Дата кодирования : UTC 2008-10-10 03:03:31
Дата файла : UTC 2013-11-04 02:13:21.499
Дата файла (местная) : 2013-11-04 09:13:21.499
Дата изменения файла : UTC 2013-11-04 02:43:36.737
Дата изменения файла (местная) : 2013-11-04 09:43:36.737
Программа кодирования : mkvmerge v2.3.0 ('Freak U') built on Sep 8 2008 18:32:16
Библиотека кодирования : libebml v0.7.7 + libmatroska v0.8.1
Библиотека кодирования : libebml v0.7.7 + libmatroska v0.8.1

Видео
Кол-во : 263
Кол-во потоков такого типа : 1
Тип потока : Video
Тип потока : Видео
Идентификатор типа потока : 0
StreamOrder : 0
Inform : English, 6968 Кбит/сек, 1280*720 (16:9), в 23,976 кадра/сек, AVC (High@L5.1) (CABAC / 6 Ref Frames)
Идентификатор : 1
Идентификатор : 1
Уникальный идентификатор : 1
Формат : AVC
Формат/Информация : Advanced Video Codec
Формат/Ссылка : http://developers.videolan.org/x264.html
Коммерческое название : AVC
Профиль формата : High@L5.1
Настройки формата : CABAC / 6 Ref Frames
Параметр CABAC формата : Yes
Параметр CABAC формата : Да
Параметр ReFrames формата : 6
Параметр ReFrames формата : 6 кадров
Интернет-тип носителя : video/H264
Идентификатор кодека : V_MPEG4/ISO/AVC
Идентификатор кодека/Ссылка : http://ffdshow-tryout.sourceforge.net/
Кодек : V_MPEG4/ISO/AVC
Кодек : AVC
Кодек/Семейство : AVC
Кодек/Информация : Advanced Video Codec
Кодек/Ссылка : http://ffdshow-tryout.sourceforge.net/
Профиль кодека : High@L5.1
Настройки кодека : CABAC / 6 Ref Frames
Параметр CABAC кодека : Yes
Codec_Settings_RefFrames : 6
Продолжительность : 5103979
Продолжительность : 1 ч. 25 м.
Продолжительность : 1 ч. 25 м. 3 с. 979 мс.
Продолжительность : 1 ч. 25 м.
Продолжительность : 01:25:03.979
Битрейт : 6968000
Битрейт : 6968 Кбит/сек
Ширина : 1280
Ширина : 1280 пикселей
Высота : 720
Высота : 720 пикселей
Пропорции пикселя : 1.000
Соотношение сторон : 1.778
Соотношение сторон : 16:9
Режим частоты кадров : CFR
Режим частоты кадров : Постоянный
Частота кадров : 23.976
Частота кадров : 23,976 кадра/сек
Счётчик кадров : 122373
Разрешение : 8
Разрешение : 8 бит
Колориметрия : 4:2:0
Цветовое пространство : YUV
Субдискретизация насыщенности : 4:2:0
Битовая глубина : 8
Битовая глубина : 8 бит
Тип развёртки : Progressive
Тип развёртки : Прогрессивная
Переплетение : PPF
Переплетение : Прогрессивная
Бит/(Пиксели*Кадры) : 0.315
Задержка : 0
Задержка : 00:00:00.000
Задержка в оригинале : Container
Задержка в оригинале : Контейнер
Размер потока : 4334227546
Размер потока : 4,04 Гбайт (75%)
Размер потока : 4 Гбайт
Размер потока : 4,0 Гбайт
Размер потока : 4,04 Гбайт
Размер потока : 4,037 Гбайт
Размер потока : 4,04 Гбайт (75%)
Пропорции потока : 0.75422
Библиотека кодирования : x264 - core 46 svn-516
Библиотека кодирования : x264 core 46 svn-516
Библиотека кодирования/Имя : x264
Библиотека кодирования/Version : core 46 svn-516
Настройки программы : cabac=1 / ref=3 / deblock=1:0:0 / analyse=0x3:0x133 / me=hex / subme=6 / brdo=1 / mixed_ref=1 / me_range=16 / chroma_me=1 / trellis=1 / 8x8dct=1 / cqm=0 / chroma_qp_offset=0 / slices=2 / nr=0 / decimate=1 / bframes=3 / b_pyramid=1 / b_adapt=1 / b_bias=0 / direct=1 / wpredb=1 / bime=1 / keyint=250 / keyint_min=25 / scenecut=40 / rc=2pass / bitrate=6968 / ratetol=1.0 / rceq='blurCplx^(1-qComp)' / qcomp=0.60 / qpmin=10 / qpmax=51 / qpstep=4 / cplxblur=20.0 / qblur=0.5 / ip_ratio=1.40 / pb_ratio=1.30
Язык : en
Язык : English
Язык : English
Язык : en
Язык : eng
Язык : en
Default : Yes
Default : Да
Forced : No
Forced : Нет

Аудио #1
Кол-во : 252
Кол-во потоков такого типа : 4
Тип потока : Audio
Тип потока : Аудио
Идентификатор типа потока : 0
Позиция идентификатора типа потока : 1
StreamOrder : 1
Inform : English, 384 Кбит/сек, 48,0 КГц, 16 бит, 6 каналов, AC-3
Идентификатор : 2
Идентификатор : 2
Уникальный идентификатор : 2029233799
Формат : AC-3
Формат/Информация : Audio Coding 3
Коммерческое название : AC-3
Расширение режима : CM (complete main)
Параметр Endianness формата : Big
Идентификатор кодека : A_AC3
Кодек : AC3
Кодек : AC3
Кодек/Семейство : AC3
Кодек/Информация : Dolby AC3
Продолжительность : 5103990
Продолжительность : 1 ч. 25 м.
Продолжительность : 1 ч. 25 м. 3 с. 990 мс.
Продолжительность : 1 ч. 25 м.
Продолжительность : 01:25:03.990
Вид битрейта : CBR
Вид битрейта : Постоянный
Битрейт : 384000
Битрейт : 384 Кбит/сек
Каналы : 6
Каналы : 6 каналов
Расположение каналов : Front: L C R, Side: L R, LFE
Расположение каналов : 3/2/0.1
Частота : 48000
Частота : 48,0 КГц
Количество образцов : 244991520
Разрешение : 16
Разрешение : 16 бит
Битовая глубина : 16
Битовая глубина : 16 бит
Метод сжатия : Lossy
Метод сжатия : С потерями
Задержка : 0
Задержка : 00:00:00.000
Задержка в оригинале : Container
Задержка в оригинале : Контейнер
Задержка видео : 0
Задержка видео : 0
Размер потока : 244991520
Размер потока : 234 Мбайт (4%)
Размер потока : 234 Мбайт
Размер потока : 234 Мбайт
Размер потока : 234 Мбайт
Размер потока : 233,6 Мбайт
Размер потока : 234 Мбайт (4%)
Пропорции потока : 0.04263
Заголовок : AC3 2.0 384 Kbps
Язык : en
Язык : English
Язык : English
Язык : en
Язык : eng
Язык : en
Default : No
Default : Нет
Forced : No
Forced : Нет
bsid : 8
dialnorm : -31
dialnorm/String : -31 dB
compr : 1.94
compr/String : 1.94 dB
dynrng : 9.17
dynrng/String : 9.17 dB
acmod : 7
lfeon : 1
dialnorm_Average : -31
dialnorm_Average/String : -31 dB
dialnorm_Minimum : -31
dialnorm_Minimum/String : -31 dB
dialnorm_Maximum : -31
dialnorm_Maximum/String : -31 dB
dialnorm_Count : 2
compr_Average : 2.15
compr_Average/String : 2.15 dB
compr_Minimum : 1.94
compr_Minimum/String : 1.94 dB
compr_Maximum : 2.36
compr_Maximum/String : 2.36 dB
compr_Count : 2
dynrng_Average : 9.17
dynrng_Average/String : 9.17 dB
dynrng_Minimum : 9.17
dynrng_Minimum/String : 9.17 dB
dynrng_Maximum : 9.17
dynrng_Maximum/String : 9.17 dB
dynrng_Count : 2

Аудио #2
Кол-во : 222
Кол-во потоков такого типа : 4
Тип потока : Audio
Тип потока : Аудио
Идентификатор типа потока : 1
Позиция идентификатора типа потока : 2
StreamOrder : 2
Inform : Russian, 755 Кбит/сек, 48,0 КГц, 24 бит, 6 каналов, DTS
Идентификатор : 3
Идентификатор : 3
Уникальный идентификатор : 592732807
Формат : DTS
Формат/Информация : Digital Theater Systems
Коммерческое название : DTS
Режим : 16
Параметр Endianness формата : Big
Идентификатор кодека : A_DTS
Кодек : DTS
Кодек : DTS
Кодек/Семейство : DTS
Продолжительность : 5103990
Продолжительность : 1 ч. 25 м.
Продолжительность : 1 ч. 25 м. 3 с. 990 мс.
Продолжительность : 1 ч. 25 м.
Продолжительность : 01:25:03.990
Вид битрейта : CBR
Вид битрейта : Постоянный
Битрейт : 754500
Битрейт : 755 Кбит/сек
Каналы : 6
Каналы : 6 каналов
Расположение каналов : Front: L C R, Side: L R, LFE
Расположение каналов : 3/2/0.1
Частота : 48000
Частота : 48,0 КГц
Количество образцов : 244991520
Разрешение : 24
Разрешение : 24 бит
Битовая глубина : 24
Битовая глубина : 24 бит
Метод сжатия : Lossy
Метод сжатия : С потерями
Задержка : 0
Задержка : 00:00:00.000
Задержка в оригинале : Container
Задержка в оригинале : Контейнер
Задержка видео : 0
Задержка видео : 0
Размер потока : 481370056
Размер потока : 459 Мбайт (8%)
Размер потока : 459 Мбайт
Размер потока : 459 Мбайт
Размер потока : 459 Мбайт
Размер потока : 459,1 Мбайт
Размер потока : 459 Мбайт (8%)
Пропорции потока : 0.08377
Заголовок : dts 5.1 768 Kbps Mngl
Язык : ru
Язык : Russian
Язык : Russian
Язык : ru
Язык : rus
Язык : ru
Default : Yes
Default : Да
Forced : No
Forced : Нет

Аудио #3
Кол-во : 252
Кол-во потоков такого типа : 4
Тип потока : Audio
Тип потока : Аудио
Идентификатор типа потока : 2
Позиция идентификатора типа потока : 3
StreamOrder : 3
Идентификатор : 4
Идентификатор : 4
Уникальный идентификатор : 2620157320
Формат : AC-3
Формат/Информация : Audio Coding 3
Коммерческое название : AC-3
Расширение режима : CM (complete main)
Параметр Endianness формата : Big
Идентификатор кодека : A_AC3
Кодек : AC3
Кодек : AC3
Кодек/Семейство : AC3
Кодек/Информация : Dolby AC3
Продолжительность : 5103990
Продолжительность : 1 ч. 25 м.
Продолжительность : 1 ч. 25 м. 3 с. 990 мс.
Продолжительность : 1 ч. 25 м.
Продолжительность : 01:25:03.990
Вид битрейта : CBR
Вид битрейта : Постоянный
Битрейт : 448000
Битрейт : 448 Кбит/сек
Каналы : 6
Каналы : 6 каналов
Расположение каналов : Front: L C R, Side: L R, LFE
Расположение каналов : 3/2/0.1
Частота : 48000
Частота : 48,0 КГц
Количество образцов : 244991520
Разрешение : 16
Разрешение : 16 бит
Битовая глубина : 16
Битовая глубина : 16 бит
Метод сжатия : Lossy
Метод сжатия : С потерями
Задержка : 0
Задержка : 00:00:00.000
Задержка в оригинале : Container
Задержка в оригинале : Контейнер
Задержка видео : 0
Задержка видео : 0
Размер потока : 285823440
Размер потока : 273 Мбайт (5%)
Размер потока : 273 Мбайт
Размер потока : 273 Мбайт
Размер потока : 273 Мбайт
Размер потока : 272,6 Мбайт
Размер потока : 273 Мбайт (5%)
Пропорции потока : 0.04974
Заголовок : AC3 5.1 384 Kbps Glanz
Язык : ru
Язык : Russian
Язык : Russian
Язык : ru
Язык : rus
Язык : ru
Default : No
Default : Нет
Forced : No
Forced : Нет
bsid : 8
dialnorm : -30
dialnorm/String : -30 dB
compr : 1.02
compr/String : 1.02 dB
dynrng : 0.53
dynrng/String : 0.53 dB
acmod : 7
lfeon : 1
dialnorm_Average : -30
dialnorm_Average/String : -30 dB
dialnorm_Minimum : -30
dialnorm_Minimum/String : -30 dB
dialnorm_Maximum : -30
dialnorm_Maximum/String : -30 dB
dialnorm_Count : 2
compr_Average : 1.02
compr_Average/String : 1.02 dB
compr_Minimum : 1.02
compr_Minimum/String : 1.02 dB
compr_Maximum : 1.02
compr_Maximum/String : 1.02 dB
compr_Count : 2
dynrng_Average : 0.53
dynrng_Average/String : 0.53 dB
dynrng_Minimum : 0.53
dynrng_Minimum/String : 0.53 dB
dynrng_Maximum : 0.53
dynrng_Maximum/String : 0.53 dB
dynrng_Count : 2

Аудио #4
Кол-во : 252
Кол-во потоков такого типа : 4
Тип потока : Audio
Тип потока : Аудио
Идентификатор типа потока : 3
Позиция идентификатора типа потока : 4
StreamOrder : 4
Идентификатор : 5
Идентификатор : 5
Уникальный идентификатор : 986645398
Формат : AC-3
Формат/Информация : Audio Coding 3
Коммерческое название : AC-3
Расширение режима : CM (complete main)
Параметр Endianness формата : Big
Идентификатор кодека : A_AC3
Кодек : AC3
Кодек : AC3
Кодек/Семейство : AC3
Кодек/Информация : Dolby AC3
Продолжительность : 5103990
Продолжительность : 1 ч. 25 м.
Продолжительность : 1 ч. 25 м. 3 с. 990 мс.
Продолжительность : 1 ч. 25 м.
Продолжительность : 01:25:03.990
Вид битрейта : CBR
Вид битрейта : Постоянный
Битрейт : 448000
Битрейт : 448 Кбит/сек
Каналы : 6
Каналы : 6 каналов
Расположение каналов : Front: L C R, Side: L R, LFE
Расположение каналов : 3/2/0.1
Частота : 48000
Частота : 48,0 КГц
Количество образцов : 244991520
Разрешение : 16
Разрешение : 16 бит
Битовая глубина : 16
Битовая глубина : 16 бит
Метод сжатия : Lossy
Метод сжатия : С потерями
Задержка : 0
Задержка : 00:00:00.000
Задержка в оригинале : Container
Задержка в оригинале : Контейнер
Задержка видео : 0
Задержка видео : 0
Размер потока : 285823440
Размер потока : 273 Мбайт (5%)
Размер потока : 273 Мбайт
Размер потока : 273 Мбайт
Размер потока : 273 Мбайт
Размер потока : 272,6 Мбайт
Размер потока : 273 Мбайт (5%)
Пропорции потока : 0.04974
Заголовок : AC3 5.1 384 Kbps Mikhalev
Язык : ru
Язык : Russian
Язык : Russian
Язык : ru
Язык : rus
Язык : ru
Default : No
Default : Нет
Forced : No
Forced : Нет
bsid : 8
dialnorm : -30
dialnorm/String : -30 dB
compr : 1.02
compr/String : 1.02 dB
dynrng : 0.53
dynrng/String : 0.53 dB
acmod : 7
lfeon : 1
dialnorm_Average : -30
dialnorm_Average/String : -30 dB
dialnorm_Minimum : -30
dialnorm_Minimum/String : -30 dB
dialnorm_Maximum : -30
dialnorm_Maximum/String : -30 dB
dialnorm_Count : 2
compr_Average : 1.02
compr_Average/String : 1.02 dB
compr_Minimum : 1.02
compr_Minimum/String : 1.02 dB
compr_Maximum : 1.02
compr_Maximum/String : 1.02 dB
compr_Count : 2
dynrng_Average : 0.53
dynrng_Average/String : 0.53 dB
dynrng_Minimum : 0.53
dynrng_Minimum/String : 0.53 dB
dynrng_Maximum : 0.53
dynrng_Maximum/String : 0.53 dB
dynrng_Count : 2



Голый пистолет 33 1/3: Последний выпад / Naked Gun 33 1/3: The Final Insult
Год выпуска: 1994
Страна: США
Слоган: «The single most important filmmaking event since Naked Gun 2 1/2!»
Жанр: боевик, комедия, криминал
Продолжительность: 01:22:32
Перевод: Профессиональный (многоголосый, закадровый)
Субтитры: Нет

Режиссер:Питер Сигал / Peter Segal
Сценарий:Пэт Профт / Pat Proft, Дэвид Цукер / David Zucker, Роберт ЛоКэш / Robert LoCash, Джим Абрахамс / Jim Abrahams, Джерри Цукер / Jerry Zucker
Продюсер:Роберт К. Уайсс / Robert K. Weiss, Дэвид Цукер / David Zucker, Джим Абрахамс / Jim Abrahams, Майкл Юинг / Michael Ewing, Уильям С. Геррити / William C. Gerrity
Оператор:Роберт М. Стивенс / Robert M. Stevens
Композитор:Айра Ньюборн / Ira Newborn

Лесли Нильсен (Lt. Frank Drebin), Присцилла Пресли (Jane Spencer), Джордж Кеннеди (Ed Hocken), О. Дж. Симпсон (Nordberg), Фред Уорд (Rocco), Кэтлин Фримен (Muriel), Анна Николь Смит (Tanya), Эллен Грин (Louise), Эд Уильямс (Ted Olsen), Рэй Бирк (Papshmir), Мэтт Роу (Clayton), Вайли Смолл (Defense Attorney)

Описание:
В тюрьму к известному бомбисту-террористу Рокко приходит представитель арабских террористов и предлагает ему и его мамаше совершить ужасающий теракт за 5 миллионов. Остановить его может только наш лейтенант Фрэнк Дребин, ушедший на пенсию и решающий брачные проблемы с супругой-адвокатессой.

Рейтинг
kinopoisk.ru: 7.169 (8356)
imdb.com: 6.20 (56 237)
MPAA: PG-13 - Детям до 13 лет просмотр не желателен

Качество: HDRip720
Формат: MKV
Видео кодек: AVC
Аудио кодек: AC3/DTS
Видео: AVC, 1280x720 (16:9), 6500 kbps, 23,976 fps, 0,294 bpp
Аудио №1: английский / AC3 / 2.0 / 48 kHz / 384 kbps / 16 bit
Аудио №2: русский / DTS / 5.1 / 48 kHz / 755 kbps / 24 bit
Аудио №3: русский / AC3 / 5.1 / 48 kHz / 448 kbps / 16 bit Гланц
Аудио №4: русский / AC3 / 5.1 / 48 kHz / 448 kbps / 16 bit Михалев



Общее
Кол-во : 284
Кол-во потоков такого типа : 1
Тип потока : General
Тип потока : Общее
Идентификатор типа потока : 0
Inform : Matroska: 4,92 Гбайт, 1 ч. 22 м.
Уникальный идентификатор : 191279055581758577861494696597416310170
Уникальный идентификатор : 191279055581758577861494696597416310170 (0x8FE7018EFA0BB015BCFF7D22F08BF59A)
Кол-во видеопотоков : 1
Кол-во аудиопотоков : 4
Video_Format_List : AVC
Video_Format_WithHint_List : AVC
Видеокодеки : AVC
Video_Language_List : English
Audio_Format_List : AC-3 / DTS / AC-3 / AC-3
Audio_Format_WithHint_List : AC-3 / DTS / AC-3 / AC-3
Аудиокодеки : AC3 / DTS / AC3 / AC3
Audio_Language_List : English / Russian / Russian / Russian
Полное имя : H:ТОРРЕНТЫNaked Gun TrilogyПистолет3.mkv
Имя папки : H:ТОРРЕНТЫNaked Gun Trilogy
Имя файла : Пистолет3
Расширение : mkv
Формат : Matroska
Формат : Matroska
Формат/Ссылка : http://packs.matroska.org/
Формат/Используется в : mkv mk3d mka mks
Коммерческое название : Matroska
Версия формата : Version 1
Кодек : Matroska
Кодек : Matroska
Кодек/Ссылка : http://packs.matroska.org/
Кодек/Используется в : mkv mk3d mka mks
Размер файла : 5286254793
Размер файла : 4,92 Гбайт
Размер файла : 5 Гбайт
Размер файла : 4,9 Гбайт
Размер файла : 4,92 Гбайт
Размер файла : 4,923 Гбайт
Продолжительность : 4952640
Продолжительность : 1 ч. 22 м.
Продолжительность : 1 ч. 22 м. 32 с. 640 мс.
Продолжительность : 1 ч. 22 м.
Продолжительность : 01:22:32.640
Общий поток : 8538888
Общий поток : 8539 Кбит/сек
Размер потока : 105212882
Размер потока : 100 Мбайт (2%)
Размер потока : 100 Мбайт
Размер потока : 100 Мбайт
Размер потока : 100 Мбайт
Размер потока : 100,3 Мбайт
Размер потока : 100 Мбайт (2%)
Пропорции потока : 0.01990
Дата кодирования : UTC 2008-10-10 01:47:19
Дата файла : UTC 2013-11-04 02:16:28.264
Дата файла (местная) : 2013-11-04 09:16:28.264
Дата изменения файла : UTC 2013-11-04 02:48:39.946
Дата изменения файла (местная) : 2013-11-04 09:48:39.946
Программа кодирования : mkvmerge v2.3.0 ('Freak U') built on Sep 8 2008 18:32:16
Библиотека кодирования : libebml v0.7.7 + libmatroska v0.8.1
Библиотека кодирования : libebml v0.7.7 + libmatroska v0.8.1

Видео
Кол-во : 263
Кол-во потоков такого типа : 1
Тип потока : Video
Тип потока : Видео
Идентификатор типа потока : 0
StreamOrder : 0
Inform : English, 6500 Кбит/сек, 1280*720 (16:9), в 23,976 кадра/сек, AVC (High@L5.1) (CABAC / 11 Ref Frames)
Идентификатор : 1
Идентификатор : 1
Уникальный идентификатор : 1
Формат : AVC
Формат/Информация : Advanced Video Codec
Формат/Ссылка : http://developers.videolan.org/x264.html
Коммерческое название : AVC
Профиль формата : High@L5.1
Настройки формата : CABAC / 11 Ref Frames
Параметр CABAC формата : Yes
Параметр CABAC формата : Да
Параметр ReFrames формата : 11
Параметр ReFrames формата : 11 кадров
Интернет-тип носителя : video/H264
Идентификатор кодека : V_MPEG4/ISO/AVC
Идентификатор кодека/Ссылка : http://ffdshow-tryout.sourceforge.net/
Кодек : V_MPEG4/ISO/AVC
Кодек : AVC
Кодек/Семейство : AVC
Кодек/Информация : Advanced Video Codec
Кодек/Ссылка : http://ffdshow-tryout.sourceforge.net/
Профиль кодека : High@L5.1
Настройки кодека : CABAC / 11 Ref Frames
Параметр CABAC кодека : Yes
Codec_Settings_RefFrames : 11
Продолжительность : 4952619
Продолжительность : 1 ч. 22 м.
Продолжительность : 1 ч. 22 м. 32 с. 619 мс.
Продолжительность : 1 ч. 22 м.
Продолжительность : 01:22:32.619
Битрейт : 6500000
Битрейт : 6500 Кбит/сек
Ширина : 1280
Ширина : 1280 пикселей
Высота : 720
Высота : 720 пикселей
Пропорции пикселя : 1.000
Соотношение сторон : 1.778
Соотношение сторон : 16:9
Режим частоты кадров : CFR
Режим частоты кадров : Постоянный
Частота кадров : 23.976
Частота кадров : 23,976 кадра/сек
Счётчик кадров : 118744
Разрешение : 8
Разрешение : 8 бит
Колориметрия : 4:2:0
Цветовое пространство : YUV
Субдискретизация насыщенности : 4:2:0
Битовая глубина : 8
Битовая глубина : 8 бит
Тип развёртки : Progressive
Тип развёртки : Прогрессивная
Переплетение : PPF
Переплетение : Прогрессивная
Бит/(Пиксели*Кадры) : 0.294
Задержка : 0
Задержка : 00:00:00.000
Задержка в оригинале : Container
Задержка в оригинале : Контейнер
Размер потока : 3921523651
Размер потока : 3,65 Гбайт (74%)
Размер потока : 4 Гбайт
Размер потока : 3,7 Гбайт
Размер потока : 3,65 Гбайт
Размер потока : 3,652 Гбайт
Размер потока : 3,65 Гбайт (74%)
Пропорции потока : 0.74183
Библиотека кодирования : x264 - core 47 svn-520
Библиотека кодирования : x264 core 47 svn-520
Библиотека кодирования/Имя : x264
Библиотека кодирования/Version : core 47 svn-520
Настройки программы : cabac=1 / ref=8 / deblock=1:0:0 / analyse=0x3:0x133 / me=hex / subme=6 / brdo=1 / mixed_ref=1 / me_range=16 / chroma_me=1 / trellis=1 / 8x8dct=1 / cqm=0 / chroma_qp_offset=0 / slices=2 / nr=0 / decimate=1 / bframes=3 / b_pyramid=1 / b_adapt=1 / b_bias=0 / direct=2 / wpredb=1 / bime=1 / keyint=250 / keyint_min=25 / scenecut=40 / rc=2pass / bitrate=6500 / ratetol=1.0 / rceq='blurCplx^(1-qComp)' / qcomp=0.60 / qpmin=10 / qpmax=51 / qpstep=4 / cplxblur=20.0 / qblur=0.5 / ip_ratio=1.40 / pb_ratio=1.30
Язык : en
Язык : English
Язык : English
Язык : en
Язык : eng
Язык : en
Default : Yes
Default : Да
Forced : No
Forced : Нет

Аудио #1
Кол-во : 254
Кол-во потоков такого типа : 4
Тип потока : Audio
Тип потока : Аудио
Идентификатор типа потока : 0
Позиция идентификатора типа потока : 1
StreamOrder : 1
Inform : English, 384 Кбит/сек, 48,0 КГц, 16 бит, 2 канала, AC-3
Идентификатор : 2
Идентификатор : 2
Уникальный идентификатор : 1693927579
Формат : AC-3
Формат/Информация : Audio Coding 3
Коммерческое название : AC-3
Расширение режима : CM (complete main)
Параметр Endianness формата : Big
Идентификатор кодека : A_AC3
Кодек : AC3
Кодек : AC3
Кодек/Семейство : AC3
Кодек/Информация : Dolby AC3
Продолжительность : 4952640
Продолжительность : 1 ч. 22 м.
Продолжительность : 1 ч. 22 м. 32 с. 640 мс.
Продолжительность : 1 ч. 22 м.
Продолжительность : 01:22:32.640
Вид битрейта : CBR
Вид битрейта : Постоянный
Битрейт : 384000
Битрейт : 384 Кбит/сек
Каналы : 2
Каналы : 2 канала
Расположение каналов : Front: L R
Расположение каналов : 2/0/0
Частота : 48000
Частота : 48,0 КГц
Количество образцов : 237726720
Разрешение : 16
Разрешение : 16 бит
Битовая глубина : 16
Битовая глубина : 16 бит
Метод сжатия : Lossy
Метод сжатия : С потерями
Задержка : 140
Задержка : 140 мс.
Задержка : 140 мс.
Задержка : 140 мс.
Задержка : 00:00:00.140
Задержка в оригинале : Container
Задержка в оригинале : Контейнер
Задержка видео : 140
Задержка видео : 140 мс.
Задержка видео : 140 мс.
Задержка видео : 140 мс.
Задержка видео : 00:00:00.140
Задержка видео : 140
Задержка видео : 140 мс.
Задержка видео : 140 мс.
Задержка видео : 140 мс.
Задержка видео : 00:00:00.140
Размер потока : 237726720
Размер потока : 227 Мбайт (4%)
Размер потока : 227 Мбайт
Размер потока : 227 Мбайт
Размер потока : 227 Мбайт
Размер потока : 226,7 Мбайт
Размер потока : 227 Мбайт (4%)
Пропорции потока : 0.04497
Заголовок : AC3 2.0 384 Kbps
Язык : en
Язык : English
Язык : English
Язык : en
Язык : eng
Язык : en
Default : No
Default : Нет
Forced : No
Forced : Нет
bsid : 8
dialnorm : -31
dialnorm/String : -31 dB
compr : -6.02
compr/String : -6.02 dB
dynrng : 3.34
dynrng/String : 3.34 dB
dsurmod : 1
dsurmod/String : Not Dolby Surround encoded
acmod : 2
lfeon : 0
dialnorm_Average : -31
dialnorm_Average/String : -31 dB
dialnorm_Minimum : -31
dialnorm_Minimum/String : -31 dB
dialnorm_Maximum : -31
dialnorm_Maximum/String : -31 dB
dialnorm_Count : 2
compr_Average : -6.02
compr_Average/String : -6.02 dB
compr_Minimum : -6.02
compr_Minimum/String : -6.02 dB
compr_Maximum : -6.02
compr_Maximum/String : -6.02 dB
compr_Count : 2
dynrng_Average : 3.34
dynrng_Average/String : 3.34 dB
dynrng_Minimum : 3.34
dynrng_Minimum/String : 3.34 dB
dynrng_Maximum : 3.34
dynrng_Maximum/String : 3.34 dB
dynrng_Count : 2

Аудио #2
Кол-во : 222
Кол-во потоков такого типа : 4
Тип потока : Audio
Тип потока : Аудио
Идентификатор типа потока : 1
Позиция идентификатора типа потока : 2
StreamOrder : 2
Inform : Russian, 755 Кбит/сек, 48,0 КГц, 24 бит, 6 каналов, DTS
Идентификатор : 3
Идентификатор : 3
Уникальный идентификатор : 26328767
Формат : DTS
Формат/Информация : Digital Theater Systems
Коммерческое название : DTS
Режим : 16
Параметр Endianness формата : Big
Идентификатор кодека : A_DTS
Кодек : DTS
Кодек : DTS
Кодек/Семейство : DTS
Продолжительность : 4952640
Продолжительность : 1 ч. 22 м.
Продолжительность : 1 ч. 22 м. 32 с. 640 мс.
Продолжительность : 1 ч. 22 м.
Продолжительность : 01:22:32.640
Вид битрейта : CBR
Вид битрейта : Постоянный
Битрейт : 754500
Битрейт : 755 Кбит/сек
Каналы : 6
Каналы : 6 каналов
Расположение каналов : Front: L C R, Side: L R, LFE
Расположение каналов : 3/2/0.1
Частота : 48000
Частота : 48,0 КГц
Количество образцов : 237726720
Разрешение : 24
Разрешение : 24 бит
Битовая глубина : 24
Битовая глубина : 24 бит
Метод сжатия : Lossy
Метод сжатия : С потерями
Задержка : 0
Задержка : 00:00:00.000
Задержка в оригинале : Container
Задержка в оригинале : Контейнер
Задержка видео : 0
Задержка видео : 0
Размер потока : 467095860
Размер потока : 445 Мбайт (9%)
Размер потока : 445 Мбайт
Размер потока : 445 Мбайт
Размер потока : 445 Мбайт
Размер потока : 445,5 Мбайт
Размер потока : 445 Мбайт (9%)
Пропорции потока : 0.08836
Заголовок : dts 5.1 768 Kbps Mngl
Язык : ru
Язык : Russian
Язык : Russian
Язык : ru
Язык : rus
Язык : ru
Default : Yes
Default : Да
Forced : No
Forced : Нет

Аудио #3
Кол-во : 252
Кол-во потоков такого типа : 4
Тип потока : Audio
Тип потока : Аудио
Идентификатор типа потока : 2
Позиция идентификатора типа потока : 3
StreamOrder : 3
Идентификатор : 4
Идентификатор : 4
Уникальный идентификатор : 134084496
Формат : AC-3
Формат/Информация : Audio Coding 3
Коммерческое название : AC-3
Расширение режима : CM (complete main)
Параметр Endianness формата : Big
Идентификатор кодека : A_AC3
Кодек : AC3
Кодек : AC3
Кодек/Семейство : AC3
Кодек/Информация : Dolby AC3
Продолжительность : 4952640
Продолжительность : 1 ч. 22 м.
Продолжительность : 1 ч. 22 м. 32 с. 640 мс.
Продолжительность : 1 ч. 22 м.
Продолжительность : 01:22:32.640
Вид битрейта : CBR
Вид битрейта : Постоянный
Битрейт : 448000
Битрейт : 448 Кбит/сек
Каналы : 6
Каналы : 6 каналов
Расположение каналов : Front: L C R, Side: L R, LFE
Расположение каналов : 3/2/0.1
Частота : 48000
Частота : 48,0 КГц
Количество образцов : 237726720
Разрешение : 16
Разрешение : 16 бит
Битовая глубина : 16
Битовая глубина : 16 бит
Метод сжатия : Lossy
Метод сжатия : С потерями
Задержка : 0
Задержка : 00:00:00.000
Задержка в оригинале : Container
Задержка в оригинале : Контейнер
Задержка видео : 0
Задержка видео : 0
Размер потока : 277347840
Размер потока : 264 Мбайт (5%)
Размер потока : 264 Мбайт
Размер потока : 264 Мбайт
Размер потока : 264 Мбайт
Размер потока : 264,5 Мбайт
Размер потока : 264 Мбайт (5%)
Пропорции потока : 0.05247
Заголовок : AC3 5.1 384 Kbps Glanz
Язык : ru
Язык : Russian
Язык : Russian
Язык : ru
Язык : rus
Язык : ru
Default : No
Default : Нет
Forced : No
Forced : Нет
bsid : 8
dialnorm : -30
dialnorm/String : -30 dB
compr : 1.02
compr/String : 1.02 dB
dynrng : 0.78
dynrng/String : 0.78 dB
acmod : 7
lfeon : 1
dialnorm_Average : -30
dialnorm_Average/String : -30 dB
dialnorm_Minimum : -30
dialnorm_Minimum/String : -30 dB
dialnorm_Maximum : -30
dialnorm_Maximum/String : -30 dB
dialnorm_Count : 2
compr_Average : 1.26
compr_Average/String : 1.26 dB
compr_Minimum : 1.02
compr_Minimum/String : 1.02 dB
compr_Maximum : 1.49
compr_Maximum/String : 1.49 dB
compr_Count : 2
dynrng_Average : 0.78
dynrng_Average/String : 0.78 dB
dynrng_Minimum : 0.78
dynrng_Minimum/String : 0.78 dB
dynrng_Maximum : 0.78
dynrng_Maximum/String : 0.78 dB
dynrng_Count : 2

Аудио #4
Кол-во : 252
Кол-во потоков такого типа : 4
Тип потока : Audio
Тип потока : Аудио
Идентификатор типа потока : 3
Позиция идентификатора типа потока : 4
StreamOrder : 4
Идентификатор : 5
Идентификатор : 5
Уникальный идентификатор : 298678672
Формат : AC-3
Формат/Информация : Audio Coding 3
Коммерческое название : AC-3
Расширение режима : CM (complete main)
Параметр Endianness формата : Big
Идентификатор кодека : A_AC3
Кодек : AC3
Кодек : AC3
Кодек/Семейство : AC3
Кодек/Информация : Dolby AC3
Продолжительность : 4952640
Продолжительность : 1 ч. 22 м.
Продолжительность : 1 ч. 22 м. 32 с. 640 мс.
Продолжительность : 1 ч. 22 м.
Продолжительность : 01:22:32.640
Вид битрейта : CBR
Вид битрейта : Постоянный
Битрейт : 448000
Битрейт : 448 Кбит/сек
Каналы : 6
Каналы : 6 каналов
Расположение каналов : Front: L C R, Side: L R, LFE
Расположение каналов : 3/2/0.1
Частота : 48000
Частота : 48,0 КГц
Количество образцов : 237726720
Разрешение : 16
Разрешение : 16 бит
Битовая глубина : 16
Битовая глубина : 16 бит
Метод сжатия : Lossy
Метод сжатия : С потерями
Задержка : 0
Задержка : 00:00:00.000
Задержка в оригинале : Container
Задержка в оригинале : Контейнер
Задержка видео : 0
Задержка видео : 0
Размер потока : 277347840
Размер потока : 264 Мбайт (5%)
Размер потока : 264 Мбайт
Размер потока : 264 Мбайт
Размер потока : 264 Мбайт
Размер потока : 264,5 Мбайт
Размер потока : 264 Мбайт (5%)
Пропорции потока : 0.05247
Заголовок : AC3 5.1 384 Kbps Mikhalev
Язык : ru
Язык : Russian
Язык : Russian
Язык : ru
Язык : rus
Язык : ru
Default : No
Default : Нет
Forced : No
Forced : Нет
bsid : 8
dialnorm : -30
dialnorm/String : -30 dB
compr : 1.02
compr/String : 1.02 dB
dynrng : 0.78
dynrng/String : 0.78 dB
acmod : 7
lfeon : 1
dialnorm_Average : -30
dialnorm_Average/String : -30 dB
dialnorm_Minimum : -30
dialnorm_Minimum/String : -30 dB
dialnorm_Maximum : -30
dialnorm_Maximum/String : -30 dB
dialnorm_Count : 2
compr_Average : 1.26
compr_Average/String : 1.26 dB
compr_Minimum : 1.02
compr_Minimum/String : 1.02 dB
compr_Maximum : 1.49
compr_Maximum/String : 1.49 dB
compr_Count : 2
dynrng_Average : 0.78
dynrng_Average/String : 0.78 dB
dynrng_Minimum : 0.78
dynrng_Minimum/String : 0.78 dB
dynrng_Maximum : 0.78
dynrng_Maximum/String : 0.78 dB
dynrng_Count : 2




piratbit.pw



Скачать Голый пистолет: Трилогия через торрент http://s020.radikal.ru/i711/1311/10/5699b46c839b.jpg Скачать фильм Голый пистолет: Трилогия через торрент бесплантно в хорошем качестве Описание:Самый некомпетентный полицейский, лейтенант Фрэнк Дребин, должен в одиночку противостоять международному заговору, цель которого - ... 9.9 10 38
Info! Золотая раздача, скачанное не засчитывается.
Торрент: Зарегистрирован [2013-11-04 03:41] · скачан: 392 раз
Статус: √ проверено
Размер: 15.63 GB
Как cкачать? Как скачать Голый пистолет: Трилогия через торрент | qTorrent

28-11-2019 20:33  

Отключить всю рекламу на сайте

04-11-2013 04:45 Голый пистолет: Трилогия Скачать торрент  

За Лешу Михалева отдельное спасибо. ИМХО в его переводе надо смотреть такие старые комедии.piratbit.pw



04-11-2013 05:22 Голый пистолет: Трилогия Скачать торрент  

tolikss330 писал(а):

За Лешу Михалева отдельное спасибо. ИМХО в его переводе надо смотреть такие старые комедии.

Не за что) piratbit.pw



04-11-2013 09:21 Голый пистолет: Трилогия Скачать торрент  

Супер!!!!!Михалёв зачёт!!!!piratbit.pw



04-11-2013 14:41 Голый пистолет: Трилогия Скачать торрент  

Большое спасибо, очень приятно смотреть старые фильмы, особенно классику комедий.piratbit.pw



12-11-2016 19:44 Голый пистолет: Трилогия Скачать торрент  

Раздайте немного скорости пожалуйста!piratbit.pw



    Дорогой пользователь! Огромная просьба, поблагодарите релизера, оцените раздачу и оставьте свои комментарий, если Вы скачали Голый пистолет: Трилогия через торрент бесплатно! Внесите свою лепту в развитие PiratBit!
    Комментировать посты могут только пользователи прошедшие не сложную регистрацию
    Показать сообщения:    

    Голый пистолет: Трилогия через торрент
    Скачать бесплатно Голый пистолет: Трилогия
    Голый пистолет: Трилогия скачать торрент
    Голый пистолет: Трилогия смотреть онлайн
    Cкачать фильм Голый пистолет: Трилогия бесплатно
    Голый пистолет: Трилогия скачать торрент в хорошем качестве
    Голый пистолет: Трилогия смотреть онлайн бесплатно в хорошем качестве


    Вы не можете начинать темы
    Вы не можете отвечать на сообщения
    Вы не можете редактировать свои сообщения
    Вы не можете удалять свои сообщения
    Вы не можете голосовать в опросах
    Вы не можете прикреплять файлы к сообщениям
    Вы можете скачивать файлы