новый адрес
Ссылка на приватное зеркало всего за 1$. Внимание количество ограничено!!!

iTunes

1+1

iTunes

мы

iTunes

1

iTunes

Чернобыль

iTunes

Ральф против интернета

Лицензия

ПШазам

Лицензия

Оно 2

Лицензия

30
pack

Вам бонус

ВАЖНО

!!Акция!!

Alien_RageХит недели

RePack

Resident Evil 21

ИГРА 18+

pack

RePack

jed

!!Акция!!

Alien_Rage

RePack

fifa19

RePack

Assassins Creed: Odyssey

RePack

NEED FOR SPEED™ PAYBACK

3 сезон

9 сезон

Бесстыжие 9 сезон

Все сериалы

все сериалы на PB.wtf

RePack

FAR CRY 5
Ребята, катастрофически не хватает 1900р. для оплаты серверов за Октябрь (всвязи с блокировками трафик упал в 3 раза), 1-2р., выручайте.
  

Аэроплан 2: Продолжение / Airplane II: The Sequel (Кен Финклмен / Ken Finkleman) [ 1982 , США , фантастика, мелодрама, комедия , BDRip, Профессиональный многоголосый, Английский] piratbit.pw

Аэроплан 2: Продолжение через торрент piratbit.pw

Размер: 2.74 GB | Добавлен: 6 лет назад | Торрент скачан:116 раз
Скачать  

03-11-2013 03:54 Аэроплан 2: Продолжение Скачать торрент  

Аэроплан 2: Продолжение / Airplane II: The Sequel
Год выпуска: 1982
Страна: США
Слоган: «For the ride of your life... All you need for Christmas are your two front seats!»
Жанр: фантастика, мелодрама, комедия
Продолжительность: 01:24:16
Перевод:
Профессиональный многоголосый (лицензия)
Профессиональный многоголосый
Авторский одноголосый (А. Михалёв)
Авторский одноголосый (В. Горчаков)
Субтитры: Английские

Режиссер:Кен Финклмен / Ken Finkleman
Сценарий:Кен Финклмен / Ken Finkleman
Продюсер:Мэл Деллар / Mel Dellar, Ховард Коч / Howard W. Koch
Оператор:Джозеф Ф. Бирок / Joseph F. Biroc
Композитор:Элмер Бернстайн / Elmer Bernstein, Ричард Хазард / Richard Hazard, Чарльз Фокс / Charles Fox, Пол Уильямс / Paul Williams

Роберт Хэйс (Ted Striker), Джули Хэгерти (Elaine Dickinson), Ллойд Бриджес (Steven McCroskey), Чад Эверетт (Simon Kurtz), Питер Грейвз (Capt. Clarence Oveur), Чак Коннорс (The Sarge), Уильям Шетнер (Cdr. Buck Murdock), Рэймонд Бёрр (Judge D.C. Simonton), Джон Вернон (Dr. Stone), Стивен Стакер (Controller Jacobs, Courtroom Clerk), Кент МакКорд (Navigator Dave Unger), Джеймс А. Уотсон мл. (First Officer Dunn)

Описание:
Полет «шаттла», совершающего первый регулярный рейс на Луну, проходит нормально, если не считать того, что все системы корабля отказали, на борту находится безумный террорист, угрожающий взорвать звездолет, и, что самое страшное, у экипажа... абсолютно кончился кофе.

Рейтинг
kinopoisk.ru: 6.618 (1876)
imdb.com: 5.90 (25 677)
MPAA: PG - Рекомендуется присутствие родителей

Качество: BDRip
Формат: MKV
Видео кодек: AVC
Аудио кодек: AC3
Видео: AVC, 1024x576 (16:9), 3500 kbps, 23,976 fps, 0,247 bpp
Аудио №1: русский / AC3 / 2.0 / 48 kHz / 192 kbps / 16 bit
Аудио №2: русский / AC3 / 5.1 / 48 kHz / 384 kbps / 16 bit
Аудио №3: русский / AC3 / 2.0 / 48 kHz / 192 kbps / 16 bit
Аудио №4: русский / AC3 / 2.0 / 48 kHz / 192 kbps / 16 bit
Аудио №5: английский / AC3 / 2.0 / 48 kHz / 192 kbps / 16 bit



Общее
Кол-во : 284
Кол-во потоков такого типа : 1
Тип потока : General
Тип потока : Общее
Идентификатор типа потока : 0
Уникальный идентификатор : 239939560656636136255091830404857150968
Уникальный идентификатор : 239939560656636136255091830404857150968 (0xB482ADB0496C9E4EB3E925CEC2B33DF8)
Кол-во видеопотоков : 1
Кол-во аудиопотоков : 5
Кол-во текстовых потоков : 1
Кол-во потоков меню : 1
Video_Format_List : AVC
Video_Format_WithHint_List : AVC
Видеокодеки : AVC
Video_Language_List : English
Audio_Format_List : AC-3 / AC-3 / AC-3 / AC-3 / AC-3
Audio_Format_WithHint_List : AC-3 / AC-3 / AC-3 / AC-3 / AC-3
Аудиокодеки : AC3 / AC3 / AC3 / AC3 / AC3
Audio_Language_List : Russian / Russian / Russian / Russian / English
Text_Format_List : UTF-8
Text_Format_WithHint_List : UTF-8
Текстовые кодеки : UTF-8
Text_Language_List : English
Полное имя : H:ТОРРЕНТЫАэроплан2.mkv
Имя папки : H:ТОРРЕНТЫ
Имя файла : Аэроплан2
Расширение : mkv
Формат : Matroska
Формат : Matroska
Формат/Ссылка : http://packs.matroska.org/
Формат/Используется в : mkv mk3d mka mks
Коммерческое название : Matroska
Версия формата : Version 4 / Version 2
Кодек : Matroska
Кодек : Matroska
Кодек/Ссылка : http://packs.matroska.org/
Кодек/Используется в : mkv mk3d mka mks
Размер файла : 2941005005
Размер файла : 2,74 Гбайт
Размер файла : 3 Гбайт
Размер файла : 2,7 Гбайт
Размер файла : 2,74 Гбайт
Размер файла : 2,739 Гбайт
Продолжительность : 5056064
Продолжительность : 1 ч. 24 м.
Продолжительность : 1 ч. 24 м. 16 с. 64 мс.
Продолжительность : 1 ч. 24 м.
Продолжительность : 01:24:16.064
Общий поток : 4653430
Общий поток : 4653 Кбит/сек
Размер потока : 58529402
Размер потока : 55,8 Мбайт (2%)
Размер потока : 56 Мбайт
Размер потока : 56 Мбайт
Размер потока : 55,8 Мбайт
Размер потока : 55,82 Мбайт
Размер потока : 55,8 Мбайт (2%)
Пропорции потока : 0.01990
Заголовок : -=MediaClub-Odessit=-
Название фильма : -=MediaClub-Odessit=-
Дата кодирования : UTC 2013-10-29 06:50:09
Дата файла : UTC 2013-11-03 02:54:37.465
Дата файла (местная) : 2013-11-03 09:54:37.465
Дата изменения файла : UTC 2013-11-03 03:15:12.820
Дата изменения файла (местная) : 2013-11-03 10:15:12.820
Программа кодирования : mkvmerge v6.2.0 ('Promised Land') built on Apr 28 2013 12:22:01
Библиотека кодирования : libebml v1.3.0 + libmatroska v1.4.0
Библиотека кодирования : libebml v1.3.0 + libmatroska v1.4.0

Видео
Кол-во : 263
Кол-во потоков такого типа : 1
Тип потока : Video
Тип потока : Видео
Идентификатор типа потока : 0
StreamOrder : 0
Идентификатор : 1
Идентификатор : 1
Уникальный идентификатор : 1
Формат : AVC
Формат/Информация : Advanced Video Codec
Формат/Ссылка : http://developers.videolan.org/x264.html
Коммерческое название : AVC
Профиль формата : High@L4.1
Настройки формата : CABAC / 9 Ref Frames
Параметр CABAC формата : Yes
Параметр CABAC формата : Да
Параметр ReFrames формата : 9
Параметр ReFrames формата : 9 кадров
Интернет-тип носителя : video/H264
Идентификатор кодека : V_MPEG4/ISO/AVC
Идентификатор кодека/Ссылка : http://ffdshow-tryout.sourceforge.net/
Кодек : V_MPEG4/ISO/AVC
Кодек : AVC
Кодек/Семейство : AVC
Кодек/Информация : Advanced Video Codec
Кодек/Ссылка : http://ffdshow-tryout.sourceforge.net/
Профиль кодека : High@L4.1
Настройки кодека : CABAC / 9 Ref Frames
Параметр CABAC кодека : Yes
Codec_Settings_RefFrames : 9
Продолжительность : 5056056
Продолжительность : 1 ч. 24 м.
Продолжительность : 1 ч. 24 м. 16 с. 56 мс.
Продолжительность : 1 ч. 24 м.
Продолжительность : 01:24:16.056
Битрейт : 3500000
Битрейт : 3500 Кбит/сек
Ширина : 1024
Ширина : 1024 пикселя
Высота : 576
Высота : 576 пикселей
Пропорции пикселя : 1.000
Соотношение сторон : 1.778
Соотношение сторон : 16:9
Режим частоты кадров : CFR
Режим частоты кадров : Постоянный
Частота кадров : 23.976
Частота кадров : 23,976 кадра/сек
Счётчик кадров : 121224
Разрешение : 8
Разрешение : 8 бит
Колориметрия : 4:2:0
Цветовое пространство : YUV
Субдискретизация насыщенности : 4:2:0
Битовая глубина : 8
Битовая глубина : 8 бит
Тип развёртки : Progressive
Тип развёртки : Прогрессивная
Переплетение : PPF
Переплетение : Прогрессивная
Бит/(Пиксели*Кадры) : 0.247
Задержка : 0
Задержка : 00:00:00.000
Задержка в оригинале : Container
Задержка в оригинале : Контейнер
Размер потока : 2154402387
Размер потока : 2,01 Гбайт (73%)
Размер потока : 2 Гбайт
Размер потока : 2,0 Гбайт
Размер потока : 2,01 Гбайт
Размер потока : 2,006 Гбайт
Размер потока : 2,01 Гбайт (73%)
Пропорции потока : 0.73254
Библиотека кодирования : x264 - core 133 r2334 a3ac64b
Библиотека кодирования : x264 core 133 r2334 a3ac64b
Библиотека кодирования/Имя : x264
Библиотека кодирования/Version : core 133 r2334 a3ac64b
Настройки программы : cabac=1 / ref=9 / deblock=1:-3:-3 / analyse=0x3:0x133 / me=umh / subme=11 / psy=1 / psy_rd=1.00:0.20 / mixed_ref=1 / me_range=48 / chroma_me=1 / trellis=2 / 8x8dct=1 / cqm=0 / deadzone=21,11 / fast_pskip=0 / chroma_qp_offset=-3 / threads=6 / lookahead_threads=1 / sliced_threads=0 / nr=0 / decimate=0 / interlaced=0 / bluray_compat=0 / constrained_intra=0 / bframes=9 / b_pyramid=2 / b_adapt=2 / b_bias=0 / direct=3 / weightb=1 / open_gop=0 / weightp=2 / keyint=240 / keyint_min=23 / scenecut=40 / intra_refresh=0 / rc=2pass / mbtree=0 / bitrate=3500 / ratetol=1.0 / qcomp=0.60 / qpmin=0 / qpmax=69 / qpstep=4 / cplxblur=20.0 / qblur=0.5 / ip_ratio=1.40 / pb_ratio=1.30 / aq=1:1.00
Язык : en
Язык : English
Язык : English
Язык : en
Язык : eng
Язык : en
Default : Yes
Default : Да
Forced : No
Forced : Нет

Аудио #1
Кол-во : 253
Кол-во потоков такого типа : 5
Тип потока : Audio
Тип потока : Аудио
Идентификатор типа потока : 0
Позиция идентификатора типа потока : 1
StreamOrder : 1
Идентификатор : 2
Идентификатор : 2
Уникальный идентификатор : 1490757913297208223
Формат : AC-3
Формат/Информация : Audio Coding 3
Коммерческое название : AC-3
Расширение режима : CM (complete main)
Параметр Endianness формата : Big
Идентификатор кодека : A_AC3
Кодек : AC3
Кодек : AC3
Кодек/Семейство : AC3
Кодек/Информация : Dolby AC3
Продолжительность : 5056064
Продолжительность : 1 ч. 24 м.
Продолжительность : 1 ч. 24 м. 16 с. 64 мс.
Продолжительность : 1 ч. 24 м.
Продолжительность : 01:24:16.064
Вид битрейта : CBR
Вид битрейта : Постоянный
Битрейт : 192000
Битрейт : 192 Кбит/сек
Каналы : 2
Каналы : 2 канала
Расположение каналов : Front: L R
Расположение каналов : 2/0/0
Частота : 48000
Частота : 48,0 КГц
Количество образцов : 242691072
Разрешение : 16
Разрешение : 16 бит
Битовая глубина : 16
Битовая глубина : 16 бит
Метод сжатия : Lossy
Метод сжатия : С потерями
Задержка : 0
Задержка : 00:00:00.000
Задержка в оригинале : Container
Задержка в оригинале : Контейнер
Задержка видео : 0
Задержка видео : 0
Размер потока : 121345536
Размер потока : 116 Мбайт (4%)
Размер потока : 116 Мбайт
Размер потока : 116 Мбайт
Размер потока : 116 Мбайт
Размер потока : 115,7 Мбайт
Размер потока : 116 Мбайт (4%)
Пропорции потока : 0.04126
Заголовок : Профессиональный многоголосый (лицензия)
Язык : ru
Язык : Russian
Язык : Russian
Язык : ru
Язык : rus
Язык : ru
Default : Yes
Default : Да
Forced : No
Forced : Нет
bsid : 8
dialnorm : -27
dialnorm/String : -27 dB
compr : -0.28
compr/String : -0.28 dB
dynrng : -4.30
dynrng/String : -4.30 dB
dsurmod : 0
acmod : 2
lfeon : 0
dialnorm_Average : -27
dialnorm_Average/String : -27 dB
dialnorm_Minimum : -27
dialnorm_Minimum/String : -27 dB
dialnorm_Maximum : -27
dialnorm_Maximum/String : -27 dB
dialnorm_Count : 2
compr_Average : -0.28
compr_Average/String : -0.28 dB
compr_Minimum : -0.28
compr_Minimum/String : -0.28 dB
compr_Maximum : -0.28
compr_Maximum/String : -0.28 dB
compr_Count : 2
dynrng_Average : -4.30
dynrng_Average/String : -4.30 dB
dynrng_Minimum : -4.30
dynrng_Minimum/String : -4.30 dB
dynrng_Maximum : -4.30
dynrng_Maximum/String : -4.30 dB
dynrng_Count : 2

Аудио #2
Кол-во : 252
Кол-во потоков такого типа : 5
Тип потока : Audio
Тип потока : Аудио
Идентификатор типа потока : 1
Позиция идентификатора типа потока : 2
StreamOrder : 2
Идентификатор : 3
Идентификатор : 3
Уникальный идентификатор : 14413511909496952510
Формат : AC-3
Формат/Информация : Audio Coding 3
Коммерческое название : AC-3
Расширение режима : CM (complete main)
Параметр Endianness формата : Big
Идентификатор кодека : A_AC3
Кодек : AC3
Кодек : AC3
Кодек/Семейство : AC3
Кодек/Информация : Dolby AC3
Продолжительность : 5056064
Продолжительность : 1 ч. 24 м.
Продолжительность : 1 ч. 24 м. 16 с. 64 мс.
Продолжительность : 1 ч. 24 м.
Продолжительность : 01:24:16.064
Вид битрейта : CBR
Вид битрейта : Постоянный
Битрейт : 384000
Битрейт : 384 Кбит/сек
Каналы : 6
Каналы : 6 каналов
Расположение каналов : Front: L C R, Side: L R, LFE
Расположение каналов : 3/2/0.1
Частота : 48000
Частота : 48,0 КГц
Количество образцов : 242691072
Разрешение : 16
Разрешение : 16 бит
Битовая глубина : 16
Битовая глубина : 16 бит
Метод сжатия : Lossy
Метод сжатия : С потерями
Задержка : 0
Задержка : 00:00:00.000
Задержка в оригинале : Container
Задержка в оригинале : Контейнер
Задержка видео : 0
Задержка видео : 0
Размер потока : 242691072
Размер потока : 231 Мбайт (8%)
Размер потока : 231 Мбайт
Размер потока : 231 Мбайт
Размер потока : 231 Мбайт
Размер потока : 231,4 Мбайт
Размер потока : 231 Мбайт (8%)
Пропорции потока : 0.08252
Заголовок : Профессиональный многоголосый
Язык : ru
Язык : Russian
Язык : Russian
Язык : ru
Язык : rus
Язык : ru
Default : No
Default : Нет
Forced : No
Forced : Нет
bsid : 8
dialnorm : -27
dialnorm/String : -27 dB
compr : -0.28
compr/String : -0.28 dB
dynrng : -1.48
dynrng/String : -1.48 dB
acmod : 7
lfeon : 1
dialnorm_Average : -27
dialnorm_Average/String : -27 dB
dialnorm_Minimum : -27
dialnorm_Minimum/String : -27 dB
dialnorm_Maximum : -27
dialnorm_Maximum/String : -27 dB
dialnorm_Count : 2
compr_Average : -0.28
compr_Average/String : -0.28 dB
compr_Minimum : -0.28
compr_Minimum/String : -0.28 dB
compr_Maximum : -0.28
compr_Maximum/String : -0.28 dB
compr_Count : 2
dynrng_Average : -1.48
dynrng_Average/String : -1.48 dB
dynrng_Minimum : -1.48
dynrng_Minimum/String : -1.48 dB
dynrng_Maximum : -1.48
dynrng_Maximum/String : -1.48 dB
dynrng_Count : 2

Аудио #3
Кол-во : 253
Кол-во потоков такого типа : 5
Тип потока : Audio
Тип потока : Аудио
Идентификатор типа потока : 2
Позиция идентификатора типа потока : 3
StreamOrder : 3
Идентификатор : 4
Идентификатор : 4
Уникальный идентификатор : 20664263000873095
Формат : AC-3
Формат/Информация : Audio Coding 3
Коммерческое название : AC-3
Расширение режима : CM (complete main)
Параметр Endianness формата : Big
Идентификатор кодека : A_AC3
Кодек : AC3
Кодек : AC3
Кодек/Семейство : AC3
Кодек/Информация : Dolby AC3
Продолжительность : 5056064
Продолжительность : 1 ч. 24 м.
Продолжительность : 1 ч. 24 м. 16 с. 64 мс.
Продолжительность : 1 ч. 24 м.
Продолжительность : 01:24:16.064
Вид битрейта : CBR
Вид битрейта : Постоянный
Битрейт : 192000
Битрейт : 192 Кбит/сек
Каналы : 2
Каналы : 2 канала
Расположение каналов : Front: L R
Расположение каналов : 2/0/0
Частота : 48000
Частота : 48,0 КГц
Количество образцов : 242691072
Разрешение : 16
Разрешение : 16 бит
Битовая глубина : 16
Битовая глубина : 16 бит
Метод сжатия : Lossy
Метод сжатия : С потерями
Задержка : 0
Задержка : 00:00:00.000
Задержка в оригинале : Container
Задержка в оригинале : Контейнер
Задержка видео : 0
Задержка видео : 0
Размер потока : 121345536
Размер потока : 116 Мбайт (4%)
Размер потока : 116 Мбайт
Размер потока : 116 Мбайт
Размер потока : 116 Мбайт
Размер потока : 115,7 Мбайт
Размер потока : 116 Мбайт (4%)
Пропорции потока : 0.04126
Заголовок : Авторский одноголосый (А. Михалёв)
Язык : ru
Язык : Russian
Язык : Russian
Язык : ru
Язык : rus
Язык : ru
Default : No
Default : Нет
Forced : No
Forced : Нет
bsid : 8
dialnorm : -27
dialnorm/String : -27 dB
compr : -0.28
compr/String : -0.28 dB
dynrng : -4.30
dynrng/String : -4.30 dB
dsurmod : 0
acmod : 2
lfeon : 0
dialnorm_Average : -27
dialnorm_Average/String : -27 dB
dialnorm_Minimum : -27
dialnorm_Minimum/String : -27 dB
dialnorm_Maximum : -27
dialnorm_Maximum/String : -27 dB
dialnorm_Count : 2
compr_Average : -0.28
compr_Average/String : -0.28 dB
compr_Minimum : -0.28
compr_Minimum/String : -0.28 dB
compr_Maximum : -0.28
compr_Maximum/String : -0.28 dB
compr_Count : 2
dynrng_Average : -4.30
dynrng_Average/String : -4.30 dB
dynrng_Minimum : -4.30
dynrng_Minimum/String : -4.30 dB
dynrng_Maximum : -4.30
dynrng_Maximum/String : -4.30 dB
dynrng_Count : 2

Аудио #4
Кол-во : 253
Кол-во потоков такого типа : 5
Тип потока : Audio
Тип потока : Аудио
Идентификатор типа потока : 3
Позиция идентификатора типа потока : 4
StreamOrder : 4
Идентификатор : 5
Идентификатор : 5
Уникальный идентификатор : 4522795985188167615
Формат : AC-3
Формат/Информация : Audio Coding 3
Коммерческое название : AC-3
Расширение режима : CM (complete main)
Параметр Endianness формата : Big
Идентификатор кодека : A_AC3
Кодек : AC3
Кодек : AC3
Кодек/Семейство : AC3
Кодек/Информация : Dolby AC3
Продолжительность : 5056064
Продолжительность : 1 ч. 24 м.
Продолжительность : 1 ч. 24 м. 16 с. 64 мс.
Продолжительность : 1 ч. 24 м.
Продолжительность : 01:24:16.064
Вид битрейта : CBR
Вид битрейта : Постоянный
Битрейт : 192000
Битрейт : 192 Кбит/сек
Каналы : 2
Каналы : 2 канала
Расположение каналов : Front: L R
Расположение каналов : 2/0/0
Частота : 48000
Частота : 48,0 КГц
Количество образцов : 242691072
Разрешение : 16
Разрешение : 16 бит
Битовая глубина : 16
Битовая глубина : 16 бит
Метод сжатия : Lossy
Метод сжатия : С потерями
Задержка : 0
Задержка : 00:00:00.000
Задержка в оригинале : Container
Задержка в оригинале : Контейнер
Задержка видео : 0
Задержка видео : 0
Размер потока : 121345536
Размер потока : 116 Мбайт (4%)
Размер потока : 116 Мбайт
Размер потока : 116 Мбайт
Размер потока : 116 Мбайт
Размер потока : 115,7 Мбайт
Размер потока : 116 Мбайт (4%)
Пропорции потока : 0.04126
Заголовок : Авторский одноголосый (В. Горчаков)
Язык : ru
Язык : Russian
Язык : Russian
Язык : ru
Язык : rus
Язык : ru
Default : No
Default : Нет
Forced : No
Forced : Нет
bsid : 8
dialnorm : -27
dialnorm/String : -27 dB
compr : -0.28
compr/String : -0.28 dB
dynrng : -4.30
dynrng/String : -4.30 dB
dsurmod : 0
acmod : 2
lfeon : 0
dialnorm_Average : -27
dialnorm_Average/String : -27 dB
dialnorm_Minimum : -27
dialnorm_Minimum/String : -27 dB
dialnorm_Maximum : -27
dialnorm_Maximum/String : -27 dB
dialnorm_Count : 2
compr_Average : -0.28
compr_Average/String : -0.28 dB
compr_Minimum : -0.28
compr_Minimum/String : -0.28 dB
compr_Maximum : -0.28
compr_Maximum/String : -0.28 dB
compr_Count : 2
dynrng_Average : -4.30
dynrng_Average/String : -4.30 dB
dynrng_Minimum : -4.30
dynrng_Minimum/String : -4.30 dB
dynrng_Maximum : -4.30
dynrng_Maximum/String : -4.30 dB
dynrng_Count : 2

Аудио #5
Кол-во : 235
Кол-во потоков такого типа : 5
Тип потока : Audio
Тип потока : Аудио
Идентификатор типа потока : 4
Позиция идентификатора типа потока : 5
StreamOrder : 5
Идентификатор : 6
Идентификатор : 6
Уникальный идентификатор : 5361970494447397555
Формат : AC-3
Формат/Информация : Audio Coding 3
Коммерческое название : AC-3
Расширение режима : CM (complete main)
Параметр Endianness формата : Big
Идентификатор кодека : A_AC3
Кодек : AC3
Кодек : AC3
Кодек/Семейство : AC3
Кодек/Информация : Dolby AC3
Продолжительность : 5056064
Продолжительность : 1 ч. 24 м.
Продолжительность : 1 ч. 24 м. 16 с. 64 мс.
Продолжительность : 1 ч. 24 м.
Продолжительность : 01:24:16.064
Вид битрейта : CBR
Вид битрейта : Постоянный
Битрейт : 192000
Битрейт : 192 Кбит/сек
Каналы : 2
Каналы : 2 канала
Расположение каналов : Front: L R
Расположение каналов : 2/0/0
Частота : 48000
Частота : 48,0 КГц
Количество образцов : 242691072
Разрешение : 16
Разрешение : 16 бит
Битовая глубина : 16
Битовая глубина : 16 бит
Метод сжатия : Lossy
Метод сжатия : С потерями
Задержка : 0
Задержка : 00:00:00.000
Задержка в оригинале : Container
Задержка в оригинале : Контейнер
Задержка видео : 0
Задержка видео : 0
Размер потока : 121345536
Размер потока : 116 Мбайт (4%)
Размер потока : 116 Мбайт
Размер потока : 116 Мбайт
Размер потока : 116 Мбайт
Размер потока : 115,7 Мбайт
Размер потока : 116 Мбайт (4%)
Пропорции потока : 0.04126
Язык : en
Язык : English
Язык : English
Язык : en
Язык : eng
Язык : en
Default : No
Default : Нет
Forced : No
Forced : Нет
bsid : 8
dialnorm : -31
dialnorm/String : -31 dB
dsurmod : 0
acmod : 2
lfeon : 0
dialnorm_Average : -31
dialnorm_Average/String : -31 dB
dialnorm_Minimum : -31
dialnorm_Minimum/String : -31 dB
dialnorm_Maximum : -31
dialnorm_Maximum/String : -31 dB
dialnorm_Count : 2

Текст
Кол-во : 195
Кол-во потоков такого типа : 1
Тип потока : Text
Тип потока : Текст
Идентификатор типа потока : 0
StreamOrder : 6
Идентификатор : 7
Идентификатор : 7
Уникальный идентификатор : 12264812040318879880
Формат : UTF-8
Коммерческое название : UTF-8
Идентификатор кодека : S_TEXT/UTF8
Идентификатор кодека/Информация : UTF-8 Plain Text
Кодек : S_TEXT/UTF8
Кодек : UTF-8
Кодек/Информация : UTF-8 Plain Text
Язык : en
Язык : English
Язык : English
Язык : en
Язык : eng
Язык : en
Default : No
Default : Нет
Forced : No
Forced : Нет

Меню
Кол-во : 90
Кол-во потоков такого типа : 1
Тип потока : Menu
Тип потока : Меню
Идентификатор типа потока : 0
Chapters_Pos_Begin : 75
Chapters_Pos_End : 90
00:00:00.000 : en:Chapter 01
00:08:09.488 : en:Chapter 02
00:16:36.412 : en:Chapter 03
00:20:01.074 : en:Chapter 04
00:23:05.717 : en:Chapter 05
00:31:24.132 : en:Chapter 06
00:37:42.510 : en:Chapter 07
00:42:22.039 : en:Chapter 08
00:45:28.892 : en:Chapter 09
00:49:32.970 : en:Chapter 10
00:55:07.929 : en:Chapter 11
01:00:08.438 : en:Chapter 12
01:07:05.730 : en:Chapter 13
01:10:47.826 : en:Chapter 14
01:18:27.661 : en:Chapter 15



piratbit.pw



Скачать Аэроплан 2: Продолжение через торрент http://s019.radikal.ru/i601/1311/b4/65c413e9b8f0.jpg Скачать фильм Аэроплан 2: Продолжение через торрент бесплантно в хорошем качестве Описание:Полет «шаттла», совершающего первый регулярный рейс на Луну, проходит нормально, если не считать того, что все системы корабля ... 10 10 13
Info! Золотая раздача, скачанное не засчитывается.
Торрент: Зарегистрирован [2013-11-03 03:54] · скачан: 116 раз
Статус: √ проверено
Размер: 2.74 GB
Как cкачать? Как скачать Аэроплан 2: Продолжение через торрент | qTorrent


>> Переходим по ссылке <<
Автоматически подгузится скрипт который настроит ваш браузер на выигрыш!!
После настройки браузера вероятность выигрыша увеличется в 4.1-4,6 раза.
В течение 6 секунд вам откроется настроенный интерфейс казино, с повышенной вероятностью выигрыша.






Отзывы и комментарии о схеме читаем и пишем здесь: ---> Отзывы и комментарии о схеме

Новые благодарочки в телеграм довольных пользователей:
скриншот   скриншот   скриншот   скриншот   скриншот

03-11-2013 05:31 Аэроплан 2: Продолжение Скачать торрент  

Видео кодек AVC, подправил.piratbit.pw



14-03-2016 19:05 Аэроплан 2: Продолжение Скачать торрент  

Ну да появись же, кто-нибудь раздающий всего. Во славу.piratbit.pw



11-11-2016 16:23 Аэроплан 2: Продолжение Скачать торрент  

GEKADOL, Уважаемый, появись, пожалуйста, на раздаче Аэроплан 2: Продолжение / Airplane II: The Sequel. Я уже несколько месяцев пытаюсь скачать ее, но успех всего 40%. Будь человеком, помоги всем.Потом я помогу желающим. piratbit.pw



09-03-2019 06:57 Аэроплан 2: Продолжение Скачать торрент  

состояние 95,4 % , и я все еще на раздаче.piratbit.pw



    Дорогой пользователь! Огромная просьба, поблагодарите релизера, оцените раздачу и оставьте свои комментарий, если Вы скачали Аэроплан 2: Продолжение через торрент бесплатно! Внесите свою лепту в развитие PiratBit!
    Комментировать посты могут только пользователи прошедшие не сложную регистрацию
    Показать сообщения:    

    Аэроплан 2: Продолжение через торрент
    Скачать бесплатно Аэроплан 2: Продолжение
    Аэроплан 2: Продолжение скачать торрент
    Аэроплан 2: Продолжение смотреть онлайн
    Cкачать фильм Аэроплан 2: Продолжение бесплатно
    Аэроплан 2: Продолжение скачать торрент в хорошем качестве
    Аэроплан 2: Продолжение смотреть онлайн бесплатно в хорошем качестве


    Вы не можете начинать темы
    Вы не можете отвечать на сообщения
    Вы не можете редактировать свои сообщения
    Вы не можете удалять свои сообщения
    Вы не можете голосовать в опросах
    Вы не можете прикреплять файлы к сообщениям
    Вы можете скачивать файлы