1 сезон

1 сезон

iTunes

1

КиноПоиск HD

Кинопоиск HD

iTunes

13

1 сезон

RePack

30

Ultimate

ВАЖНО

ИГРА 18+

pack

RePack

MK11
pack

Легкие деньги

RePack

jed

RePack

fifa19

RePack

RDR2

RePack

NEED FOR SPEED™ PAYBACK

4 сезон

9 сезон

Бесстыжие 9 сезон

Все сериалы

все сериалы на PB.wtf

RePack

FAR CRY 5
  
Magnet ссылка

Убойный уикенд / Cottage Country (Питер Веллингтон / Peter Wellington) [2013, Канада, комедия, криминал, триллер, BDRip-AVC, Авторский [Одноголосый] [Дмитрий "Гоблин" Пучков] piratbit.pw

Убойный уикенд через торрент piratbit.pw

Размер: 2.17 GB | Добавлен: 7 лет 6 мес. назад | Торрент скачан:2911 раз
Скачать  

13-10-2013 11:38 Убойный уикенд Скачать торрент  


Убойный уикенд / Cottage Country

«They aren't going to let a little blood spoil their perfect wedding»

  • Год выпуска:2013
  • Страна:Канада
  • Жанр:комедия, криминал, триллер

  • Продолжительность: 01:31:21
  • Перевод:Авторский [Одноголосый] [Дмитрий "Гоблин" Пучков]

  • Субтитры: Нет
    • Режиссер:Питер Веллингтон / Peter Wellington

  • В ролях:Тайлер Лабайн (Todd Chipowski), Малин Акерман (Cammie Ryan), Люси Панч (Masha), Дэн Петронижевич (Salinger Chipowski), Бенджамин Эйрс (Dov Rosenberg), Кеннет Уэлш (Earl), Нэнси Битти (Mary), Сабрина Грдевич (Sergeant Mackenzie), Джим Аннан (Constable Grant), Джонатан Кромби (Dan Mushin), Эрл Паско (Vagrant), Билли Тернбулл (Stoned Kid)
    • Описание:
      Тодд Чиповски собирается провести незабываемый уикенд в загородном коттедже, который он арендовал специально для того, чтобы сделать предложение своей возлюбленной Кэмми Райан. Но торжественное событие и чудесный отдых подпортило появление братца Тодда Сэлинджера и его подружки Маши. Однако выходные всё равно становятся для героев незабываемыми - особенно после того, как Тодд в порыве ярости случайно убивает своего брата топором.

    Мировая премьера:3 июля 2013
    • Качество: BDRip-AVC
    • Формат:MKV
    • Видео кодек: AVC
    • Аудио кодек:AC3
    • Видео: 1152x624, 2955 kb/s, 23.976 fps
    • Аудио: AC3 / 5.1 / 48 kHz / 448 kbps / 16 bit

    Общее
    Уникальный идентификатор : 223546105150606258383405524628281359294 (0xA82D69EDE242050D9700BC3D523DFBBE)
    Полное имя : D:ТорентыUikend.BDRip.AVC.Goblin.mkv
    Формат : Matroska
    Версия формата : Version 2
    Размер файла : 2,17 Гбайт
    Продолжительность : 1 ч. 31 м.
    Общий поток : 3402 Кбит/сек
    Дата кодирования : UTC 2013-10-12 22:54:55
    Программа кодирования : mkvmerge v5.8.0 ('No Sleep / Pillow') built on Sep 2 2012 15:37:04
    Библиотека кодирования : libebml v1.2.3 + libmatroska v1.3.0

    Видео
    Идентификатор : 1
    Формат : AVC
    Формат/Информация : Advanced Video Codec
    Профиль формата : High@L4.1
    Параметр CABAC формата : Да
    Параметр ReFrames формата : 4 кадра
    Идентификатор кодека : V_MPEG4/ISO/AVC
    Продолжительность : 1 ч. 31 м.
    Битрейт : 2955 Кбит/сек
    Ширина : 1152 пикселя
    Высота : 624 пикселя
    Соотношение сторон : 1,85:1
    Режим частоты кадров : Постоянный
    Частота кадров : 24,000 кадра/сек
    Цветовое пространство : YUV
    Субдискретизация насыщенности : 4:2:0
    Битовая глубина : 8 бит
    Тип развёртки : Прогрессивная
    Бит/(Пиксели*Кадры) : 0.171
    Размер потока : 1,84 Гбайт (85%)
    Библиотека кодирования : x264 core 125 r2208 d9d2288
    Настройки программы : cabac=1 / ref=3 / deblock=1:-1:-1 / analyse=0x3:0x113 / me=umh / subme=7 / psy=1 / psy_rd=1.00:0.15 / mixed_ref=1 / me_range=32 / chroma_me=1 / trellis=2 / 8x8dct=1 / cqm=0 / deadzone=21,11 / fast_pskip=0 / chroma_qp_offset=-3 / threads=12 / lookahead_threads=2 / sliced_threads=0 / nr=0 / decimate=1 / interlaced=0 / bluray_compat=0 / constrained_intra=0 / bframes=3 / b_pyramid=2 / b_adapt=2 / b_bias=0 / direct=3 / weightb=1 / open_gop=0 / weightp=2 / keyint=250 / keyint_min=23 / scenecut=40 / intra_refresh=0 / rc_lookahead=60 / rc=2pass / mbtree=1 / bitrate=2955 / ratetol=1.0 / qcomp=0.60 / qpmin=0 / qpmax=69 / qpstep=4 / cplxblur=20.0 / qblur=0.5 / vbv_maxrate=50000 / vbv_bufsize=50000 / nal_hrd=none / ip_ratio=1.40 / aq=1:1.00
    Default : Да
    Forced : Нет

    Аудио
    Идентификатор : 2
    Формат : AC-3
    Формат/Информация : Audio Coding 3
    Расширение режима : CM (complete main)
    Параметр Endianness формата : Big
    Идентификатор кодека : A_AC3
    Продолжительность : 1 ч. 31 м.
    Вид битрейта : Постоянный
    Битрейт : 448 Кбит/сек
    Каналы : 6 каналов
    Расположение каналов : Front: L C R, Side: L R, LFE
    Частота : 48,0 КГц
    Битовая глубина : 16 бит
    Метод сжатия : С потерями
    Размер потока : 293 Мбайт (13%)
    Default : Да
    Forced : Нет
    скриншот   скриншот   скриншот   скриншот  
    © Оформление by Vetal
    piratbit.pw



  • Скачать Убойный уикенд через торрент http://i58.fastpic.ru/big/2013/0922/31/4683bcd4960801b02604b79f43d30631.png Скачать фильм Убойный уикенд через торрент бесплантно в хорошем качестве Описание:Тодд Чиповски собирается провести незабываемый уикенд в загородном коттедже, который он арендовал специально для того, чтобы ... 9.1 10 78
    Info! Золотая раздача, скачанное не засчитывается.
    Торрент: Зарегистрирован [2013-10-17 11:43] · скачан: 2 911 раз
    Статус: √ проверено
    Размер: 2.17 GB
    Как cкачать? Как скачать Убойный уикенд через торрент | UTorrent

    % Раздел Тема Автор DL S | L
    Фильмы 2013 [DVDrip, WEB-DLRip, HDrip] [ 1.46 GB ] Убойный уикенд / Cottage Country [2013 HDRip ] Роман™ Скачать
    2 | 0
    Фильмы с авторской озвучкой [ 1.46 GB ] Убойный уикенд / Cottage Country [2013 HDRip Авторский [Одноголосый] [Дмитрий "Гоблин" Пучков] Ворон Скачать
    1 | 0

    28-11-2019 20:33  

    Отключить всю рекламу на сайте

    13-10-2013 12:10 Убойный уикенд Скачать торрент  

    вот это скорость!piratbit.pw



    13-10-2013 15:57 Убойный уикенд Скачать торрент  

    Образцовый рип и размер то что надо !piratbit.pw



    13-10-2013 16:20 Убойный уикенд Скачать торрент  

    фильм - полная лажа piratbit.pw



    13-10-2013 18:23 Убойный уикенд Скачать торрент  

    Поржать можно. Но это не достойное продолжение первой части...
    Первая часть была более кровавой и была наполнена более смешным черным юмором.piratbit.pw



    14-10-2013 08:52 Убойный уикенд Скачать торрент  

    одно слово гофноpiratbit.pw



    14-10-2013 10:02 Убойный уикенд Скачать торрент  

    Определённый американский юмор?!piratbit.pw



    15-10-2013 11:40 Убойный уикенд Скачать торрент  

    ФИЛЬ ОТСТОЙ!!!piratbit.pw



    15-10-2013 18:16 Убойный уикенд Скачать торрент  

    полное. время зря. самая лудшая шудка -мне 35 и мне долго искать другого.piratbit.pw



    21-10-2013 05:03 Убойный уикенд Скачать торрент  

    Фильм отменное гамно! Жаль убитого времени!piratbit.pw



    22-10-2013 11:08 Убойный уикенд Скачать торрент  

    а первая часть как называлась?piratbit.pw



    23-10-2013 13:49 Убойный уикенд Скачать торрент  

    :hmmm worry нет словpiratbit.pw



    28-10-2013 17:49 Убойный уикенд Скачать торрент  

    Дерьмище редкостное.. не смотрите!!!piratbit.pw



    20-05-2019 12:32 Убойный уикенд Скачать торрент  

    coyot писал(а):

    фильм - полная лажа

    И Гоблин не помог?piratbit.pw



      Дорогой пользователь! Огромная просьба, поблагодарите релизера, оцените раздачу и оставьте свои комментарий, если Вы скачали Убойный уикенд через торрент бесплатно! Внесите свою лепту в развитие PiratBit!
      Комментировать посты могут только пользователи прошедшие не сложную регистрацию
      Показать сообщения:    

      Убойный уикенд через торрент
      Скачать бесплатно Убойный уикенд
      Убойный уикенд скачать торрент
      Убойный уикенд смотреть онлайн
      Cкачать фильм Убойный уикенд бесплатно
      Убойный уикенд скачать торрент в хорошем качестве
      Убойный уикенд смотреть онлайн бесплатно в хорошем качестве


      Вы не можете начинать темы
      Вы не можете отвечать на сообщения
      Вы не можете редактировать свои сообщения
      Вы не можете удалять свои сообщения
      Вы не можете голосовать в опросах
      Вы не можете прикреплять файлы к сообщениям
      Вы можете скачивать файлы