Ссылка на приватное зеркало нашего сайта всего за 1$. Внимание количество ограничено!!!

2 сезон

iTunes

iTunes

1

iTunes

iTunes

iTunes

WEBRip

iTunes

30
pack

Новость дня

ВАЖНО

!!Акция!!

Alien_RageХит недели

RePack

Horizon Zero Dawn

ИГРА 18+

pack

RePack

jed

!!Акция!!

Alien_Rage

RePack

fifa19

RePack

Assassins Creed: Odyssey

RePack

NEED FOR SPEED™ PAYBACK

4 сезон

9 сезон

Бесстыжие 9 сезон

Все сериалы

все сериалы на PB.wtf

RePack

FAR CRY 5
  

Человек с бульвара Капуцинов (Алла Сурикова) [1987 г., комедия, мелодрама, мюзикл, BDRip 1080p] Оригинал piratbit.pw

Человек с бульвара Капуцинов через торрент piratbit.pw

Размер: 11.54 GB | Добавлен: 6 лет 11 мес. назад | Торрент скачан:79 раз
Скачать  

09-10-2013 12:25 Человек с бульвара Капуцинов Скачать торрент  

Человек с бульвара Капуцинов
Год выпуска: 1987
Страна: СССР
Жанр: комедия, мелодрама, мюзикл,
Продолжительность: 01:37:47
Перевод:Оригинал
Субтитры: НЕТ

Режиссер: Алла Сурикова

В ролях: Андрей Миронов, Александра Яковлева, Михаил Боярский, Олег Табаков, Николай Караченцов, Игорь Кваша, Лев Дуров, Галина Польских, Наталья Крачковская, Наталья Фатеева ...,

Описание: В одном из ковбойских городков Дикого Запада с его традиционной стрельбой, сквернословием и мордобоем появляется тихий миссионер кино мистер Фёст. Неведомое прежде ковбоям «синема» до неузнаваемости меняет уклад их жизни, нравы и привычки.
Правда, позднее благородный мистер Фёст будет изгнан недоброжелателями. Но обитатели городка уже никогда не смогут забыть, что на свете есть великое искусство — КИНО…

Качество: BDRip 1080p
Формат: MKV
Видео кодек: H.264
Аудио кодек: AC3
Видео: (1808х1080),15,000 Кбит/с, 23.976 кадра/сек
Аудио#1: AC-3, 2 ch, 384 kbps (Rus) 48.0 KHz Оригинал
Аудио#2: DTS- 6 ch 1510 kbps (Rus) 48.0 KHz Оригинал
скриншот   скриншот   скриншот  

Формат : Matroska
Версия формата : Version 2
Размер файла : 11,5 Гбайт
Продолжительность : 1 ч. 37 м.
Общий поток : 16,9 Мбит/сек
Дата кодирования : UTC 2011-12-23 05:20:21
Программа кодирования : mkvmerge v5.2.0 ('I can't explain') built on Dec 18 2011 18:12:03
Библиотека кодирования : libebml v1.2.3 + libmatroska v1.3.0
Видео
Идентификатор : 1
Формат : AVC
Формат/Информация : Advanced Video Codec
Профиль формата : High@L4.1
Параметр CABAC формата : Да
Параметр ReFrames формата : 4 кадра
Идентификатор кодека : V_MPEG4/ISO/AVC
Продолжительность : 1 ч. 37 м.
Битрейт : 15,0 Мбит/сек
Ширина : 1808 пикселей
Высота : 1080 пикселей
Соотношение сторон : 1,674
Частота кадров : 23,976 кадра/сек
Цветовое пространство : YUV
Субдискретизация насыщенности : 4:2:0
Битовая глубина : 8 бит
Тип развёртки : Прогрессивная
Бит/(Пиксели*Кадры) : 0.320
Размер потока : 10,0 Гбайт (87%)
Библиотека кодирования : x264 core 115 r1936 7a9e08d
Настройки программы : cabac=1 / ref=4 / deblock=1:-1:-1 / analyse=0x3:0x113 / me=umh / subme=10 / psy=1 / psy_rd=1.00:0.10 / mixed_ref=1 / me_range=24 / chroma_me=1 / trellis=2 / 8x8dct=1 / cqm=0 / deadzone=21,11 / fast_pskip=0 / chroma_qp_offset=-3 / threads=9 / sliced_threads=0 / nr=0 / decimate=1 / interlaced=0 / bluray_compat=0 / constrained_intra=0 / bframes=13 / b_pyramid=2 / b_adapt=2 / b_bias=0 / direct=3 / weightb=1 / open_gop=0 / weightp=2 / keyint=250 / keyint_min=23 / scenecut=40 / intra_refresh=0 / rc_lookahead=50 / rc=2pass / mbtree=1 / bitrate=15000 / ratetol=1.0 / qcomp=0.70 / qpmin=0 / qpmax=69 / qpstep=4 / cplxblur=20.0 / qblur=0.5 / ip_ratio=1.40 / aq=1:1.00
Язык : English
Аудио #1
Идентификатор : 2
Формат : AC-3
Формат/Информация : Audio Coding 3
Расширение режима : CM (complete main)
Идентификатор кодека : A_AC3
Продолжительность : 1 ч. 37 м.
Вид битрейта : Постоянный
Битрейт : 384 Кбит/сек
Каналы : 2 канала
Расположение каналов : Front: L R
Частота : 48,0 КГц
Битовая глубина : 16 бит
Метод сжатия : С потерями
Задержка видео : 6 мс.
Размер потока : 269 Мбайт (2%)
Заголовок : AC3, stereo, 384 kbps
Язык : Russian
Аудио #2
Идентификатор : 3
Формат : DTS
Формат/Информация : Digital Theater Systems
Идентификатор кодека : A_DTS
Продолжительность : 1 ч. 37 м.
Вид битрейта : Постоянный
Битрейт : 1510 Кбит/сек
Каналы : 6 каналов
Расположение каналов : Front: L C R, Side: L R, LFE
Частота : 48,0 КГц
Битовая глубина : 24 бит
Метод сжатия : С потерями
Задержка видео : 6 мс.
Размер потока : 1,03 Гбайт (9%)
Заголовок : DTS, 6 ch, 1510 kbps
Язык : Russian

piratbit.pw



Скачать Человек с бульвара Капуцинов через торрент http://pic.kartinco.top/images/4/8gqpl.jpg Скачать фильм Человек с бульвара Капуцинов через торрент бесплантно в хорошем качестве Описание: В одном из ковбойских городков Дикого Запада с его традиционной стрельбой, сквернословием и мордобоем появляется тихий миссионер ... 9.9 10 10
Info! Золотая раздача, скачанное не засчитывается.
Торрент: Зарегистрирован [2013-10-09 12:25] · скачан: 79 раз
Статус: √ проверено
Размер: 11.54 GB
Как cкачать? Как скачать Человек с бульвара Капуцинов через торрент | qTorrent

% Раздел Тема Автор DL S | L
Наши фильмы (Blu-ray, BD-Remux, HDDVD) [ 20.37 GB ] Человек с бульвара Капуцинов [1987 мюзикл Blu-ray Оригинал] Бумер Скачать
1 | 0

28-11-2019 20:33  

Отключить всю рекламу на сайте

27-10-2013 22:56 Человек с бульвара Капуцинов Скачать торрент  

Люди станьте плз на раздачу, вообще мертво скорости нет.piratbit.pw



    Дорогой пользователь! Огромная просьба, поблагодарите релизера, оцените раздачу и оставьте свои комментарий, если Вы скачали Человек с бульвара Капуцинов через торрент бесплатно! Внесите свою лепту в развитие PiratBit!
    Комментировать посты могут только пользователи прошедшие не сложную регистрацию
    Показать сообщения:    

    Человек с бульвара Капуцинов через торрент
    Скачать бесплатно Человек с бульвара Капуцинов
    Человек с бульвара Капуцинов скачать торрент
    Человек с бульвара Капуцинов смотреть онлайн
    Cкачать фильм Человек с бульвара Капуцинов бесплатно
    Человек с бульвара Капуцинов скачать торрент в хорошем качестве
    Человек с бульвара Капуцинов смотреть онлайн бесплатно в хорошем качестве


    Вы не можете начинать темы
    Вы не можете отвечать на сообщения
    Вы не можете редактировать свои сообщения
    Вы не можете удалять свои сообщения
    Вы не можете голосовать в опросах
    Вы не можете прикреплять файлы к сообщениям
    Вы можете скачивать файлы