Ссылка на приватное зеркало нашего сайта всего за 1$. Внимание количество ограничено!!!

2 сезон

iTunes

iTunes

1

iTunes

iTunes

iTunes

WEBRip

iTunes

30
pack

Вам бонус

ВАЖНО

!!Акция!!

Alien_RageХит недели

RePack

Horizon Zero Dawn

ИГРА 18+

pack

RePack

jed

!!Акция!!

Alien_Rage

RePack

fifa19

RePack

Assassins Creed: Odyssey

RePack

NEED FOR SPEED™ PAYBACK

4 сезон

9 сезон

Бесстыжие 9 сезон

Все сериалы

все сериалы на PB.wtf

RePack

FAR CRY 5
  

Бриллиантовая рука (Леонид Гайдай) [1968 г., комедия, криминал, приключения, BDRip 1080p] Оригинал piratbit.pw

Бриллиантовая рука через торрент piratbit.pw

Размер: 7.95 GB | Добавлен: 6 лет 11 мес. назад | Торрент скачан:219 раз
Скачать  

08-10-2013 17:50 Бриллиантовая рука Скачать торрент  

Бриллиантовая рука
Год выпуска: 1968
Страна: СССР
Жанр: комедия, криминал, приключения,
Продолжительность: 01:38:20
Перевод:: Оригинал
Субтитры: НЕТ

Режиссер: Леонид Гайдай

В ролях: Юрий Никулин, Андрей Миронов, Анатолий Папанов, Нина Гребешкова, Станислав Чекан, Владимир Гуляев, Нонна Мордюкова, Светлана Светличная, Роман Филиппов, Григорий Шпигель,

Описание: Кинороман из жизни контрабандистов с прологом и эпилогом. В южном городке орудует шайка «валютчиков», возглавляемая Шефом и его помощником Графом. Скромный советский служащий и примерный семьянин Семен Семеныч Горбунков отправляется в зарубежный круиз на теплоходе, на котором также плывет Граф, который должен забрать бриллианты в одном из восточных городов и провезти их в загипсованной руке. Но в силу недоразумения вместо жулика на условленном месте падает ничего не подозревающий Семен Семенович и драгоценный гипс накладывают ему. Вот тут-то все и начинается...

Качество: BDRip 1080p
Формат: MKV
Видео кодек: H.264
Аудио кодек: AC3
Видео: (1366x580),10.9 Кбит/с, 24.000 кадра/сек
Аудио#1: AC-3, 6 ch, 640 kbps (Rus) 48.0 KHz Оригинал
скриншот   скриншот   скриншот  

Тип потока: Видео
Длительность: 01:38:21
Кодек: AVC
Кодек/Профиль: High@L4.1
Кодек/ID: V_MPEG4/ISO/AVC
Кодек/CABAC: Yes
Кодек/ReFrames: 5 frames
Размеры изображения: 1366 x 580 (2.35:1)
Частота кадров: 23.976 fps
Размер потока: 7.35 GiB (92%)
Битрейт: 10.9 Mbps
Библиотека кодирования: x264 core 116 r2074 2641b9e
Цветовое пространство: YUV
Тип развёртки: Progressive
Глубина: 8 bits
Настройки кодирования: cabac=1 / ref=5 / deblock=1:-3:-3 / analyse=0x3:0x113 / me=umh / subme=10 / psy=1 / psy_rd=1.00:0.00 / mixed_ref=1 / me_range=32 / chroma_me=1 / trellis=2 / 8x8dct=1 / cqm=0 / deadzone=21,11 / fast_pskip=0 / chroma_qp_offset=-1 / threads=6 / sliced_threads=0 / slices=4 / nr=0 / decimate=1 / interlaced=0 / bluray_compat=0 / constrained_intra=0 / bframes=7 / b_pyramid=2 / b_adapt=2 / b_bias=0 / direct=1 / weightb=1 / open_gop=0 / weightp=2 / keyint=250 / keyint_min=23 / scenecut=40 / intra_refresh=0 / rc_lookahead=40 / rc=2pass / mbtree=0 / bitrate=10934 / ratetol=1.0 / qcomp=0.60 / qpmin=10 / qpmax=51 / qpstep=4 / cplxblur=20.0 / qblur=0.5 / vbv_maxrate=50000 / vbv_bufsize=50000 / nal_hrd=none / ip_ratio=1.40 / pb_ratio=1.30 / aq=1:1.00
Тип потока: Звук #1
Язык: Russian
Название: AC-3 at 640 Кбит/сек 6 канала(ов), 48,0 КГц
Длительность: 01:38:21.062
Кодек: AC-3
Кодек/ID: A_AC3
Частота дискретизации: 48.0 KHz
Каналов: 6 channels
Битрейт: 640 Kbps
Битрейт/тип: Constant
Размер потока: 450 MiB (6%)
Глубина: 16 bits
Метод сжатия: Lossy

piratbit.pw



Скачать Бриллиантовая рука через торрент http://pic.kartinco.top/images/4/r31zm.jpg Скачать фильм Бриллиантовая рука через торрент бесплантно в хорошем качестве Описание: Кинороман из жизни контрабандистов с прологом и эпилогом. В южном городке орудует шайка «валютчиков», возглавляемая Шефом и его ... 10 10 25
Info! Золотая раздача, скачанное не засчитывается.
Торрент: Зарегистрирован [2013-10-08 17:50] · скачан: 219 раз
Статус: √ проверено
Размер: 7.95 GB
Как cкачать? Как скачать Бриллиантовая рука через торрент | qTorrent

% Раздел Тема Автор DL S | L
Наши фильмы (Blu-ray, BD-Remux, HDDVD) [ 22.83 GB ] Бриллиантовая рука [1968 Blu-ray Оригинал] Бумер Скачать
1 | 0

28-11-2019 20:33  

Отключить всю рекламу на сайте

08-10-2013 18:20 Бриллиантовая рука Скачать торрент  

"вот она рыба моей мечты" :good: :good: :good:piratbit.pw



28-12-2014 09:17 Бриллиантовая рука Скачать торрент  

61Rus_Mishka писал(а):

"вот она рыба моей мечты" :good: :good: :good:

Так точноpiratbit.pw



    Дорогой пользователь! Огромная просьба, поблагодарите релизера, оцените раздачу и оставьте свои комментарий, если Вы скачали Бриллиантовая рука через торрент бесплатно! Внесите свою лепту в развитие PiratBit!
    Комментировать посты могут только пользователи прошедшие не сложную регистрацию
    Показать сообщения:    

    Бриллиантовая рука через торрент
    Скачать бесплатно Бриллиантовая рука
    Бриллиантовая рука скачать торрент
    Бриллиантовая рука смотреть онлайн
    Cкачать фильм Бриллиантовая рука бесплатно
    Бриллиантовая рука скачать торрент в хорошем качестве
    Бриллиантовая рука смотреть онлайн бесплатно в хорошем качестве


    Вы не можете начинать темы
    Вы не можете отвечать на сообщения
    Вы не можете редактировать свои сообщения
    Вы не можете удалять свои сообщения
    Вы не можете голосовать в опросах
    Вы не можете прикреплять файлы к сообщениям
    Вы можете скачивать файлы