1 сезон

1 сезон

iTunes

1

КиноПоиск HD

Кинопоиск HD

iTunes

13

1 сезон

RePack

30

Deluxe

ВАЖНО

ИГРА 18+

pack

RePack

MK11
pack

Легкие деньги

RePack

jed

RePack

fifa19

RePack

RDR2

RePack

NEED FOR SPEED™ PAYBACK

4 сезон

9 сезон

Бесстыжие 9 сезон

Все сериалы

все сериалы на PB.wtf

RePack

FAR CRY 5
  
Magnet ссылка

Спокойной ночи / The Good Night (Джэйк Пэлтроу) [2007 г., DVDRip, Профессиональный многоголосый, Лицензия] piratbit.pw

Спокойной ночи через торрент piratbit.pw

Размер: 1.45 GB | Добавлен: 7 лет 7 мес. назад | Торрент скачан:55 раз
Скачать  

04-10-2013 15:31 Спокойной ночи Скачать торрент  

Спокойной ночи / The Good Night
Год выпуска: 2007
Страна: США, Великобритания, Германия
Продолжительность: 1:29:21
Перевод: Профессиональный многоголосый, Лицензия
Тип релиза: Лицензия

Режиссер: Джэйк Пэлтроу
Продюссер: Донна Джильотти, Уильям Дж. Джонсон, Ники Кентиш Барнс
Сценарий: Джэйк Пэлтроу
Жанр: Комедия, мелодрама, драма

Бюджет: $15 000 000
Премьера в мире: 25 января 2007

Лицам до 17 лет обязательно присутствие взрослого.

Кинопоиск: 6.260 (1902)

В ролях: Дэнни ДеВито, Пенелопа Крус, Гвинет Пэлтроу, Мартин Фриман, Кейт Аллен, Скай Беннетт, Майкл Гэмбон.

Описание: Гарри находится на распутье: работа достала, жена — еще хуже. И потом — ему уже 34! Кризис среднего возраста вгоняет Гарри в жестокую депрессию, пока он не встречает Анну, молодую, сексапильную, смешливую особу. Анна — настоящая девушка мечты, и это главная проблема. Ведь Гарри может встречаться с возлюбленной только… во сне.

Доп. информация: «Мечтать значит верить.»

Качество: DVDRip
Формат: AVI
Видео кодек: XviD
Аудио кодек: AC3
Видео: 720x400 (1.80:1), 25 fps, XviD build 50 ~1867 kbps avg, 0.26 bit/pixel
Аудио#1: Русский, 48 kHz, AC3 Dolby Digital, 3/2 (L,C,R,l,r) + LFE ch, ~448.00 kbps avg
Формат : AVI
Формат/Информация : Audio Video Interleave
Размер файла : 1,45 Гбайт
Продолжительность : 1 ч. 29 м.
Общий поток : 2326 Кбит/сек
Программа кодирования : VirtualDubMod 1.5.10.2 (build 2540/release)
Библиотека кодирования : VirtualDubMod build 2540/release

Видео
Идентификатор : 0
Формат : MPEG-4 Visual
Профиль формата : Advanced Simple@L5
Параметр BVOP формата : 1
Параметр QPel формата : Нет
Параметр GMC формата : Без точки перехода
Параметр матрицы формата : Выборочная
Идентификатор кодека : XVID
Идентификатор кодека/Подсказка : XviD
Продолжительность : 1 ч. 29 м.
Битрейт : 1868 Кбит/сек
Ширина : 720 пикселей
Высота : 400 пикселей
Соотношение сторон : 16:9
Частота кадров : 25,000 кадров/сек
Цветовое пространство : YUV
Субдискретизация насыщенности : 4:2:0
Битовая глубина : 8 бит
Тип развёртки : Прогрессивная
Метод сжатия : С потерями
Бит/(Пиксели*Кадры) : 0.259
Размер потока : 1,17 Гбайт (80%)
Библиотека кодирования : XviD 1.2.1 (UTC 2008-12-04)

Аудио
Идентификатор : 1
Формат : AC-3
Формат/Информация : Audio Coding 3
Расширение режима : CM (complete main)
Параметр Endianness формата : Big
Идентификатор кодека : 2000
Продолжительность : 1 ч. 29 м.
Вид битрейта : Постоянный
Битрейт : 448 Кбит/сек
Каналы : 6 каналов
Расположение каналов : Front: L C R, Side: L R, LFE
Частота : 48,0 КГц
Битовая глубина : 16 бит
Метод сжатия : С потерями
Размер потока : 286 Мбайт (19%)
Выравнивание : Разделение по промежуткам
Продолжительность промежутка : 40 мс. (1,00 видеокадр)
Время предзагрузки промежутка : 500 мс.

piratbit.pw



Скачать Спокойной ночи через торрент https://pic1.kartinco.top/images/41/6pfp1.jpg Скачать фильм Спокойной ночи через торрент бесплантно в хорошем качестве Описание: Гарри находится на распутье: работа достала, жена — еще хуже. И потом — ему уже 34! Кризис среднего возраста вгоняет Гарри в ... 10 10 5
Info! Золотая раздача, скачанное не засчитывается.
Торрент: Зарегистрирован [2013-10-04 15:31] · скачан: 55 раз
Статус: √ проверено
Размер: 1.45 GB
Как cкачать? Как скачать Спокойной ночи через торрент | UTorrent

% Раздел Тема Автор DL S | L
Фильмы 2006-2008 [ 1.45 GB ] Спокойной ночи / The Good Night [2007 музыка DVDRip] Anonymous Скачать
1 | 0


Последний раз редактировалось: Fantomas94 (2013-10-04 16:32), всего редактировалось 1 раз

28-11-2019 20:33  

Отключить всю рекламу на сайте

04-10-2013 15:59 Спокойной ночи Скачать торрент  

695px × 1 000px постер замените, жанр добавьте.
http://pb.wtf/topic/13990/piratbit.pw



    Дорогой пользователь! Огромная просьба, поблагодарите релизера, оцените раздачу и оставьте свои комментарий, если Вы скачали Спокойной ночи через торрент бесплатно! Внесите свою лепту в развитие PiratBit!
    Комментировать посты могут только пользователи прошедшие не сложную регистрацию
    Показать сообщения:    

    Спокойной ночи через торрент
    Скачать бесплатно Спокойной ночи
    Спокойной ночи скачать торрент
    Спокойной ночи смотреть онлайн
    Cкачать фильм Спокойной ночи бесплатно
    Спокойной ночи скачать торрент в хорошем качестве
    Спокойной ночи смотреть онлайн бесплатно в хорошем качестве


    Вы не можете начинать темы
    Вы не можете отвечать на сообщения
    Вы не можете редактировать свои сообщения
    Вы не можете удалять свои сообщения
    Вы не можете голосовать в опросах
    Вы не можете прикреплять файлы к сообщениям
    Вы можете скачивать файлы