новый адрес
Ссылка на приватное зеркало всего за 1$. Внимание количество ограничено!!!

iTunes

1+1

iTunes

мы

WEB-DL

1

iTunes

Чернобыль

iTunes

Ральф против интернета

Лицензия

ПШазам

Лицензия

Оно 2

Лицензия

30
pack

Вам бонус

ВАЖНО

!!Акция!!

Alien_RageХит недели

RePack

Resident Evil 21

ИГРА 18+

pack

RePack

jed

!!Акция!!

Alien_Rage

RePack

fifa19

RePack

Assassins Creed: Odyssey

RePack

NEED FOR SPEED™ PAYBACK

3 сезон

9 сезон

Бесстыжие 9 сезон

Все сериалы

все сериалы на PB.wtf

RePack

FAR CRY 5
Ребята, катастрофически не хватает 1900р. для оплаты серверов за Октябрь (всвязи с блокировками трафик упал в 3 раза), 1-2р., выручайте.
  

Замороженный / Hibernatus (Эдуар Молинаро / Edouard Molinaro) [1969, Франция, Италия, фантастика, фэнтези, комедия, HDRip] Dub piratbit.pw

Замороженный через торрент piratbit.pw

Размер: 744 MB | Добавлен: 6 лет 2 мес. назад | Торрент скачан:58 раз
Скачать  

26-09-2013 15:39 Замороженный Скачать торрент  

Замороженный / Hibernatus
Страна: Франция, Италия
Жанр: фантастика, фэнтези, комедия
Год выпуска: 1969
Продолжительность: 01:21:52

Перевод : Профессиональный (дублированный) Мосфильм
Cубтитры: нет
Оригинальная аудиодорожка: нет

Режиссер: Эдуар Молинаро / Edouard Molinaro

В ролях: Луи де Фюнес, Микаэль Лонсдаль, Клоди Жансак, Бернар Алан, Анник Алан, Оливье Де Фюнес, Эльетт Демэ, Мартина Келли, Жак Легра, Паскаль Маззотти

Описание: Юбер де Тартас, богатый промышленник, живет счастливо со своей женой Эдме и сыном. Но внезапно странное событие потрясает их жизнь: на полюсе найден замороженный дедушка его жены, пролежавший в ледяной глыбе 65 лет. Его выводят из состояния зимней спячки, а чтобы не травмировать дедушкину психику, пытаются инсценировать вокруг него жизнь начала XX века. Но в их планы вмешиваются непредвиденные обстоятельства...


Качество видео: HDRip [Hibernatus.1969.720p.WEB-DL.5xRus.Fre.Sub.HDCLUB]
Формат видео: AVI
Видео кодек: XviD
Аудио кодек: MP3
Видео: 688x288 (2.39:1), 24.000 fps, XviD build 73 ~1133 kbps avg, 0.24 bit/pixel
Аудио: 48 kHz, MPEG Layer 3, 2 ch, ~128.00 kbps avg
Раздача от:
D:Мои рипыHibernatus.1969.HDRip.745mb.dexter_lex.avi
General
Complete name : D:Мои рипыHibernatus.1969.HDRip.745mb.dexter_lex.avi
Format : AVI
Format/Info : Audio Video Interleave
File size : 744 MiB
Duration : 1h 21mn
Overall bit rate : 1 271 Kbps
Writing application : VirtualDubMod 1.5.10.3 | www.virtualdub-fr.org || (build 2550/release)
Writing library : VirtualDubMod build 2550/release
Video #0
ID : 0
Format : MPEG-4 Visual
Format profile : Advanced Simple@L5
Format settings, BVOP : 1
Format settings, QPel : No
Format settings, GMC : No warppoints
Format settings, Matrix : Custom
Codec ID : XVID
Codec ID/Hint : XviD
Duration : 1h 21mn
Bit rate : 1 133 Kbps
Width : 688 pixels
Height : 288 pixels
Display aspect ratio : 2.40:1
Frame rate : 24.000 fps
Color space : YUV
Chroma subsampling : 4:2:0
Bit depth : 8 bits
Scan type : Progressive
Compression mode : Lossy
Bits/(Pixel*Frame) : 0.238
Stream size : 664 MiB (89%)
Writing library : XviD 73
Audio #1
ID : 1
Format : MPEG Audio
Format version : Version 1
Format profile : Layer 3
Codec ID : 55
Codec ID/Hint : MP3
Duration : 1h 21mn
Bit rate mode : Constant
Bit rate : 128 Kbps
Channel(s) : 2 channels
Sampling rate : 48.0 KHz
Compression mode : Lossy
Stream size : 75.0 MiB (10%)
Alignment : Aligned on interleaves
Interleave, duration : 42 ms (1.00 video frame)
Interleave, preload duration : 504 ms
Writing library : LAME3.99r
Encoding settings : -m s -V 4 -q 2 -lowpass 17 -b 128
piratbit.pw



Скачать Замороженный через торрент http://i57.fastpic.ru/big/2013/0926/a2/1df35a2860859567b8019e48451067a2.jpg Скачать фильм Замороженный через торрент бесплантно в хорошем качестве Описание: Юбер де Тартас, богатый промышленник, живет счастливо со своей женой Эдме и сыном. Но внезапно странное событие потрясает их ... 10 10 5
Info! Золотая раздача, скачанное не засчитывается.
Торрент: Зарегистрирован [2013-09-26 15:39] · скачан: 58 раз
Статус: √ проверено
Размер: 744 MB
Как cкачать? Как скачать Замороженный через торрент | qTorrent

% Раздел Тема Автор DL S | L
Фильмы [HD 720p, 1080p] (Хороший звук DUB, MVO) [ 3.46 GB ] Замороженный / Hibernatus [1969 BDRip 720p by msltel] DUB 4 x MVO msltel Скачать
1 | 0
Фильмы [HD 720p, 1080p] (Хороший звук DUB, MVO) [ 8.22 GB ] Замороженный / Hibernatus [1969 BDRip 1080p by msltel] DUB 4 x MVO msltel Скачать
1 | 0
Классика зарубежного кино [ 1.46 GB ] Замороженный / Hibernatus [1969 Италия BDRip-AVC] Dub + MVO + Subs dexter lex Скачать
1 | 0
Фильмы [HD 720p, 1080p] (Хороший звук DUB, MVO) [ 4.8 GB ] Замороженный / Hibernatus [1969 BDRip 720p DUB MVO] кэп Скачать
1 | 0

28-11-2019 20:33  

Отключить всю рекламу на сайте

    Дорогой пользователь! Огромная просьба, поблагодарите релизера, оцените раздачу и оставьте свои комментарий, если Вы скачали Замороженный через торрент бесплатно! Внесите свою лепту в развитие PiratBit!
    Комментировать посты могут только пользователи прошедшие не сложную регистрацию
    Показать сообщения:    

    Замороженный через торрент
    Скачать бесплатно Замороженный
    Замороженный скачать торрент
    Замороженный смотреть онлайн
    Cкачать фильм Замороженный бесплатно
    Замороженный скачать торрент в хорошем качестве
    Замороженный смотреть онлайн бесплатно в хорошем качестве


    Вы не можете начинать темы
    Вы не можете отвечать на сообщения
    Вы не можете редактировать свои сообщения
    Вы не можете удалять свои сообщения
    Вы не можете голосовать в опросах
    Вы не можете прикреплять файлы к сообщениям
    Вы можете скачивать файлы