новый адрес
Ссылка на приватное зеркало всего за 1$. Внимание количество ограничено!!!

iTunes

1+1

iTunes

мы

WEB-DL

1

iTunes

Чернобыль

iTunes

Ральф против интернета

Лицензия

ПШазам

Лицензия

Оно 2

Лицензия

30
pack

Вам бонус

ВАЖНО

!!Акция!!

Alien_RageХит недели

RePack

Resident Evil 21

ИГРА 18+

pack

RePack

jed

!!Акция!!

Alien_Rage

RePack

fifa19

RePack

Assassins Creed: Odyssey

RePack

NEED FOR SPEED™ PAYBACK

3 сезон

9 сезон

Бесстыжие 9 сезон

Все сериалы

все сериалы на PB.wtf

RePack

FAR CRY 5
Ребята, катастрофически не хватает 1900р. для оплаты серверов за Октябрь (всвязи с блокировками трафик упал в 3 раза), 1-2р., выручайте.
  

Оскар / Oscar (Эдуар Молинаро / Edouard Molinaro) [1967, Франция, комедия, HDRip] Dub (Союзмультфильм) piratbit.pw

Оскар через торрент piratbit.pw

Размер: 744 MB | Добавлен: 6 лет 2 мес. назад | Торрент скачан:39 раз
Скачать  

25-09-2013 18:04 Оскар Скачать торрент  

Оскар / Oscar
Страна: Франция
Жанр: комедия
Год выпуска: 1967
Продолжительность: 01:23:08

Перевод: Профессиональный (дублированный) Союзмультфильм
Cубтитры: нет
Оригинальная аудиодорожка: нет

Режиссер: Эдуар Молинаро / Edouard Molinaro

В ролях: Луи де Фюнес, Клод Риш, Марио Давид, Джермейн Дельба, Клоди Жансак, Агата Натансон, Доминик Паж, Поль Пребуа, Сильвия Сорель, Филипп Валлори

Описание: Бертран Барнье — крупный промышленник, к которому с утра пораньше является его управляющий Кристиан. Он заявляет, что любит его дочь Колет, а после этого признается, что украл у предпринимателя кругленькую сумму. Вдобавок бизнесмен узнает, что его горничная увольняется и в одночасье становится баронессой.

Колет заявляет, что беременна от бывшего шофера по имени Оскар. Кроме того, выяснятся, что она вовсе не дочь Барнье и, не желая оставаться старой девой, готова выйти замуж за любого встречного…

К тому же, к этой истории примешиваются два черных чемодана, один из которых набит деньгами и драгоценностям, а другой женским нижним бельем… Как тут, от такого потока событий, происходящих в течение одного дня, «бедному» Бертрану не сойти с ума?!


Качество: HDRip [Oscar.1967.720p.WEB-DL.6xRus.Fre.Sub.HDCLUB]
Контейнер: AVI
Видео кодек: XviD
Аудио кодек: MP3
Видео: 688x288 (2.39:1), 24.000 fps, XviD build 73 ~1113 kbps avg, 0.23 bit/pixel
Аудио: 48 kHz, MPEG Layer 3, 2 ch, ~128.00 kbps avg
Раздача от:
D:Мои рипыOscar.1967.HDRip.745mb.dexter_lex.avi
General
Complete name : D:Мои рипыOscar.1967.HDRip.745mb.dexter_lex.avi
Format : AVI
Format/Info : Audio Video Interleave
File size : 744 MiB
Duration : 1h 23mn
Overall bit rate : 1 251 Kbps
Writing application : VirtualDubMod 1.5.10.3 | www.virtualdub-fr.org || (build 2550/release)
Writing library : VirtualDubMod build 2550/release
Video #0
ID : 0
Format : MPEG-4 Visual
Format profile : Advanced Simple@L5
Format settings, BVOP : 1
Format settings, QPel : No
Format settings, GMC : No warppoints
Format settings, Matrix : Custom
Codec ID : XVID
Codec ID/Hint : XviD
Duration : 1h 23mn
Bit rate : 1 114 Kbps
Width : 688 pixels
Height : 288 pixels
Display aspect ratio : 2.40:1
Frame rate : 24.000 fps
Color space : YUV
Chroma subsampling : 4:2:0
Bit depth : 8 bits
Scan type : Progressive
Compression mode : Lossy
Bits/(Pixel*Frame) : 0.234
Stream size : 662 MiB (89%)
Writing library : XviD 73
Audio #1
ID : 1
Format : MPEG Audio
Format version : Version 1
Format profile : Layer 3
Codec ID : 55
Codec ID/Hint : MP3
Duration : 1h 23mn
Bit rate mode : Constant
Bit rate : 128 Kbps
Channel(s) : 2 channels
Sampling rate : 48.0 KHz
Compression mode : Lossy
Stream size : 76.1 MiB (10%)
Alignment : Aligned on interleaves
Interleave, duration : 42 ms (1.00 video frame)
Interleave, preload duration : 504 ms
Writing library : LAME3.99r
Encoding settings : -m s -V 4 -q 2 -lowpass 17 -b 128
piratbit.pw



Скачать Оскар через торрент http://i57.fastpic.ru/big/2013/0925/bb/24c0335cf07366f8529797faf5d7a2bb.jpg Скачать фильм Оскар через торрент бесплантно в хорошем качестве Описание: Бертран Барнье — крупный промышленник, к которому с утра пораньше является его управляющий Кристиан. Он заявляет, что любит его ... 9.1 10 11
Info! Золотая раздача, скачанное не засчитывается.
Торрент: Зарегистрирован [2013-09-25 18:04] · скачан: 39 раз
Статус: √ проверено
Размер: 744 MB
Как cкачать? Как скачать Оскар через торрент | qTorrent

% Раздел Тема Автор DL S | L
Фильмы [HD 720p, 1080p] (Хороший звук DUB, MVO) [ 16.08 GB ] Оскар / Oscar [1991 BDRip 1080p by msltel] DUB 2 x MVO DVO 4 x AVO msltel Скачать
1 | 0
Фильмы [HD 720p, 1080p] (Хороший звук DUB, MVO) [ 5.81 GB ] Оскар / Oscar [1991 BDRip 720p by msltel] DUB 2 x MVO DVO 4 x AVO msltel Скачать
14 | 0
Фильмы с авторской озвучкой [ 1.46 GB ] Бабба Хо-Теп / Bubba Ho-Tep [2002 HDRip] [AVO] killermax2013 Скачать
1 | 0
Фильмы до 2000 г. [ 744 MB ] Фантазм 2 / Phantasm II [1988 HDRip] MVO dexter lex Скачать
1 | 0
Фильмы до 2000 г. [ 1.73 GB ] Фантазм 4: Забвение / Phantasm IV: Oblivion [1998 DVDRip-AVC многоголосый [] jump88 Скачать
1 | 0
Фильмы до 2000 г. [ 1.75 GB ] Фантазм 3 / Phantasm III: Lord of the Dead [1993 DVDRip многоголосый [] jump88 Скачать
1 | 0
Фильмы до 2000 г. [ 1.7 GB ] Фантазм / Phantasm [1978 DVDRip многоголосый [] jump88 Скачать
1 | 0

28-11-2019 20:33  

Отключить всю рекламу на сайте


    Дорогой пользователь! Огромная просьба, поблагодарите релизера, оцените раздачу и оставьте свои комментарий, если Вы скачали Оскар через торрент бесплатно! Внесите свою лепту в развитие PiratBit!
    Комментировать посты могут только пользователи прошедшие не сложную регистрацию
    Показать сообщения:    

    Оскар через торрент
    Скачать бесплатно Оскар
    Оскар скачать торрент
    Оскар смотреть онлайн
    Cкачать фильм Оскар бесплатно
    Оскар скачать торрент в хорошем качестве
    Оскар смотреть онлайн бесплатно в хорошем качестве


    Вы не можете начинать темы
    Вы не можете отвечать на сообщения
    Вы не можете редактировать свои сообщения
    Вы не можете удалять свои сообщения
    Вы не можете голосовать в опросах
    Вы не можете прикреплять файлы к сообщениям
    Вы можете скачивать файлы