1 сезон

3 сезон

iTunes

1

iTunes

DUB Netflix

iTunes

13

1 сезон

RePack

30

Deluxe

pack

Легкие деньги

ВАЖНО

ИГРА 18+

pack

RePack

MK11

RePack

jed

RePack

fifa19

RePack

RDR2

RePack

NEED FOR SPEED™ PAYBACK

4 сезон

9 сезон

Бесстыжие 9 сезон

Все сериалы

все сериалы на PB.wtf

RePack

FAR CRY 5

Anonymous, доброй ночи, мы не успеваем до 1 числа собрать деньги на оплату серверов, помогите нам пожалуйста в это трудное время. В качестве благодарности мы отключим Вам всю рекламу на сайте (укажите свой ник в строку Ваше имя)!

×
  
Magnet ссылка

Викинги / Outlander (Ховард МакКейн / Howard McCain) [2008, США, Германия, фантастика, боевик, приключения, BDRip, Профессиональный (многоголосый, закадровый) piratbit.pw

Викинги через торрент piratbit.pw

Размер: 2.18 GB | Добавлен: 7 лет 8 мес. назад | Торрент скачан:481 раз
Скачать  

22-09-2013 19:02 Викинги Скачать торрент  

Викинги / Outlander

«Это уничтожило его мир. Он не позволит ему уничтожить нас»

  • Год выпуска:2008
  • Страна:США, Германия
  • Жанр:фантастика, боевик, приключения

  • Продолжительность: 01:55:07
  • Перевод:Профессиональный (многоголосый, закадровый) + Оригинальная звуковая дорожка

  • Субтитры: Русские (R5, Киномания), английские (внешние *.srt) -отдельно
    • Режиссер:Ховард МакКейн / Howard McCain
    • Сценарий: Дирк Блэкман / Dirk Blackman, Ховард МакКейн / Howard McCain
    • Продюсер: Крис Робертс / Chris Roberts, Нейшо Али / Neishaw Ali, Карен Луп / Karen Loop, Айэйн МакКэйг / Iain McCaig, Омар МакКлинтон / Omar McClinton

  • В ролях:Джеймс Кэвизел (Kainan), София Майлс (Freya), Джек Хьюстон (Wulfric), Джон Хёрт (Hrothgar), Клифф Сондерс (Boromir), Патрик Стивенсон (Unferth), Эйдан Дивайн (Einar), Рон Перлман (Gunnar), Бэйли Мофан (Erick), Джон Неллес (Donal), Джеймс Роджерс (Bjorn), Скотт Оуэн (Aethril)

    • Описание:
      Пришелец из далекой галактики терпит крушение на Земле во времена викингов. Однако он оказался не единственным выжившим в аварии. Опасный инопланетный хищник, содержавшийся в заточении на корабле, вырвался на свободу, и главному герою предстоит отыскать и уничтожить его с помощью одного из кланов викингов.


    Автор рипа: : Vиkt0R
    • Качество:BDRip
    • Формат: AVI
    • Видео кодек: XviD
    • Аудио кодек:AC3
    • Видео: XviD, 720x400 (16:9), 1928 kbps, 23,976 fps, 0,279 bpp
    • Аудио №1: AC3 / 5.1 / 48 kHz / 384 kbps / 16 bit(RUS)
    • Аудио №2: AC3 / 5.1 / 48 kHz / 384 kbps / 16 bit(ENG)

    General
    Complete name : D:ТорентыVikingi.2008.DUAL.BDRip.XviD.AC3.-HQCLUB.avi
    Format : AVI
    Format/Info : Audio Video Interleave
    Format profile : OpenDML
    File size : 2.18 GiB
    Duration : 1h 55mn
    Overall bit rate : 2 715 Kbps
    Movie name : Vikingi.2008.DUAL.BDRip.XviD.AC3.-HQCLUB
    Director : Orbit
    Writing application : VirtualDubMod 1.5.10.2 (build 2542/release)

    Comment : 26.03.2011

    Video
    ID : 0
    Format : MPEG-4 Visual
    Format profile : Advanced Simple@L5
    Format settings, BVOP : 1
    Format settings, QPel : No
    Format settings, GMC : No warppoints
    Format settings, Matrix : Custom
    Codec ID : XVID
    Codec ID/Hint : XviD
    Duration : 1h 55mn
    Bit rate : 1 929 Kbps
    Width : 720 pixels
    Height : 400 pixels
    Display aspect ratio : 16:9
    Frame rate : 23.976 fps
    Color space : YUV
    Chroma subsampling : 4:2:0
    Bit depth : 8 bits
    Scan type : Progressive
    Compression mode : Lossy
    Bits/(Pixel*Frame) : 0.279
    Stream size : 1.55 GiB (71%)
    Writing library : XviD 62

    Audio #1
    ID : 1
    Format : AC-3
    Format/Info : Audio Coding 3
    Mode extension : CM (complete main)
    Codec ID : 2000
    Duration : 1h 55mn
    Bit rate mode : Constant
    Bit rate : 384 Kbps
    Channel(s) : 6 channels
    Channel positions : Front: L C R, Side: L R, LFE
    Sampling rate : 48.0 KHz
    Bit depth : 16 bits
    Compression mode : Lossy
    Stream size : 316 MiB (14%)
    Alignment : Split accross interleaves
    Interleave, duration : 42 ms (1.00 video frame)
    Interleave, preload duration : 500 ms

    Audio #2
    ID : 2
    Format : AC-3
    Format/Info : Audio Coding 3
    Mode extension : CM (complete main)
    Codec ID : 2000
    Duration : 1h 55mn
    Bit rate mode : Constant
    Bit rate : 384 Kbps
    Channel(s) : 6 channels
    Channel positions : Front: L C R, Side: L R, LFE
    Sampling rate : 48.0 KHz
    Bit depth : 16 bits
    Compression mode : Lossy
    Stream size : 316 MiB (14%)
    Alignment : Split accross interleaves
    Interleave, duration : 42 ms (1.00 video frame)
    Interleave, preload duration : 500 ms
    • Изначально Ренни Харлин должен был поставить картину.
    • Первый фильм в истории кинематографа, где можно услышать старонорвежский язык.
    • Изначально Карл Урбан должен был сыграть главную роль, но покинул проект из-за неоднократного переноса съёмок на более поздний период.
    • Изначально фильм задумывался как крупнобюджетный проект, съёмки которого должны были пройти в Новой Зеландии, а компания Weta должна была создать спецэффекты.
    • Томас Джейн и Шон Бин рассматривались на главную роль.
    • Один из щитов в «Холе щитов» покрашен в цвета государственного флага Норвегии.
    • Язык в начале фильма, на котором главный герой ведет диалог с компьютером, - «ломанный» исландский.
    • еще 4 факта

    © Оформление by Vetal
    piratbit.pw



  • Скачать Викинги через торрент http://i58.fastpic.ru/big/2013/0922/31/4683bcd4960801b02604b79f43d30631.png Скачать фильм Викинги через торрент бесплантно в хорошем качестве Описание:Пришелец из далекой галактики терпит крушение на Земле во времена викингов. Однако он оказался не единственным выжившим в аварии. ... 9.8 10 26
    Info! Золотая раздача, скачанное не засчитывается.
    Торрент: Зарегистрирован [2013-09-22 19:02] · скачан: 481 раз
    Статус: √ проверено
    Размер: 2.18 GB
    Как cкачать? Как скачать Викинги через торрент | UTorrent

    % Раздел Тема Автор DL S | L
    Фильмы [HD 720p, 1080p] (Хороший звук DUB, MVO) [ 6.65 GB ] Викинги против пришельцев / Outlander [2008 BDRip 1080p-HEVC 10bit ] ADVOKAT69 Скачать
    1 | 0
    Фильмы [HD 720p, 1080p] (Хороший звук DUB, MVO) [ 17.37 GB ] Викинги против пришельцев / Outlander [2008 BDRip 1080p by msltel] 3 x MVO 2 x AVO msltel Скачать
    1 | 0
    Фильмы [HD 720p, 1080p] (Хороший звук DUB, MVO) [ 6.71 GB ] Викинги против пришельцев / Outlander [2008 BDRip 720p by msltel] 3 x MVO 2 x AVO msltel Скачать
    1 | 0
    Фильмы (HD 720p, 1080p) (48-60 fps) [ 13.49 GB ] Викинги / Outlander [2008 Германия BDRip 1080p / 60 FPS многоголосый] Tiberiumsun69 Скачать
    1 | 0
    Фильмы 2006-2008 [ 1.46 GB ] Викинги / Outlander [2008 HDTVRip] nicadimas Скачать
    1 | 0
    Фильмы 2006-2008 [ 2.23 GB ] Викинги / Outlander [2008 BDRip] feldeger Скачать
    1 | 0


    Последний раз редактировалось: Ворон (2013-09-22 20:29), всего редактировалось 1 раз

    28-11-2019 20:33  

    Отключить всю рекламу на сайте

    22-09-2013 20:19 Викинги Скачать торрент  

    Это разрушило его мир. Он не будет пусть он уничтожит наше че за слоган...piratbit.pw



    22-09-2013 20:29 Викинги Скачать торрент  

    saidfatal
    гугл вот что.Исправил вроде правильно.piratbit.pw



      Дорогой пользователь! Огромная просьба, поблагодарите релизера, оцените раздачу и оставьте свои комментарий, если Вы скачали Викинги через торрент бесплатно! Внесите свою лепту в развитие PiratBit!
      Комментировать посты могут только пользователи прошедшие не сложную регистрацию
      Показать сообщения:    

      Викинги через торрент
      Скачать бесплатно Викинги
      Викинги скачать торрент
      Викинги смотреть онлайн
      Cкачать фильм Викинги бесплатно
      Викинги скачать торрент в хорошем качестве
      Викинги смотреть онлайн бесплатно в хорошем качестве


      Вы не можете начинать темы
      Вы не можете отвечать на сообщения
      Вы не можете редактировать свои сообщения
      Вы не можете удалять свои сообщения
      Вы не можете голосовать в опросах
      Вы не можете прикреплять файлы к сообщениям
      Вы можете скачивать файлы