1 сезон

1 сезон

iTunes

1

iTunes

Кинопоиск HD

iTunes

13

1 сезон

RePack

30

Deluxe

ВАЖНО

ИГРА 18+

pack

RePack

MK11
pack

Легкие деньги

RePack

jed

RePack

fifa19

RePack

RDR2

RePack

NEED FOR SPEED™ PAYBACK

4 сезон

9 сезон

Бесстыжие 9 сезон

Все сериалы

все сериалы на PB.wtf

RePack

FAR CRY 5
  
Magnet ссылка

XIII: Конспирация / XIII: The Conspiracy (Дуан Кларк / Duane Clark)(2 серии) [2008, Канада, Франция, Боевик, Триллер, Криминал, Детектив, HDRip] MVO piratbit.pw

XIII: Конспирация через торрент piratbit.pw

Размер: 2.19 GB | Добавлен: 7 лет 8 мес. назад | Торрент скачан:125 раз
Скачать  

03-09-2013 07:58 XIII: Конспирация Скачать торрент  

XIII: Конспирация / XIII: The Conspiracy
Год выпуска: 2008
Страна: США
Жанр: Боевик, детектив, криминал, триллер,
Продолжительность: 03:00:04- 2 серии
Перевод: Профессиональный (многоголосый закадровый)

Режиссер: Дуан Кларк / Duane Clark




В ролях: Стивен Дорфф, Катерина Мурино, Грег Брайк, Стивен МакХэтти, Люсинда Дэвис, Джонатан Хиггинс, Тед Атертон, Джон Буржуа, Джессалин Гилсиг, Вэл Килмер и др.,

Описание: Главный герой истории просыпается на Брайтон Бич израненным и с полной амнезией. Все ключи к прошлому сводятся к одной-единственной татуировке XIII, постепенно выводящей его на заговор против правительства США.

Качество: HDRip
Формат: AVI
Видео кодек: XviD
Аудио кодек: AC3
Видео: 704x400 (1.76:1), 23.976 fps, 1538 kbps avg, 0.23 bit/pixel
Аудио#1: Dolby Digital, 48 kHz, 3/2 (L,C,R,l,r) + LFE ch, 192 kbps
General
Complete name : XIII.Конспирация.2008.HDRip.2.18.MVO.avi
Format : AVI
Format/Info : Audio Video Interleave
File size : 2.19 GiB
Duration : 3h 0mn
Overall bit rate : 1 738 Kbps
Writing application : VirtualDubMod 1.5.10.3 (build 2550/release)
Writing library : VirtualDubMod build 2550/release

Video
ID : 0
Format : MPEG-4 Visual
Format profile : Advanced Simple@L5
Format settings, BVOP : Yes
Format settings, QPel : No
Format settings, GMC : No warppoints
Format settings, Matrix : Custom
Codec ID : XVID
Codec ID/Hint : XviD
Duration : 3h 0mn
Bit rate : 1 468 Kbps
Width : 704 pixels
Height : 400 pixels
Display aspect ratio : 16:9
Frame rate : 23.976 fps
Color space : YUV
Chroma subsampling : 4:2:0
Bit depth : 8 bits
Scan type : Progressive
Bits/(Pixel*Frame) : 0.217
Stream size : 1.85 GiB (84%)
Writing library : XviD 1.2.1 (UTC 2008-12-04)

Audio
ID : 1
Format : AC-3
Format/Info : Audio Coding 3
Mode extension : CM (complete main)
Codec ID : 2000
Duration : 3h 0mn
Bit rate mode : Constant
Bit rate : 192 Kbps
Channel(s) : 6 channels
Channel positions : Front: L C R, Side: L R, LFE
Sampling rate : 48.0 KHz
Bit depth : 16 bits
Stream size : 247 MiB (11%)
Alignment : Split accross interleaves


XIII: Конспирация скачать торрент


piratbit.pw



Скачать XIII: Конспирация через торрент https://pic1.kartinco.top/images/23/4k8jnpxtef.jpg Скачать фильм XIII: Конспирация через торрент бесплантно в хорошем качестве Описание: Главный герой истории просыпается на Брайтон Бич израненным и с полной амнезией. Все ключи к прошлому сводятся к ... 10 10 10
Info! Золотая раздача, скачанное не засчитывается.
Торрент: Зарегистрирован [2013-09-03 07:58] · скачан: 125 раз
Статус: √ проверено
Размер: 2.19 GB
Как cкачать? Как скачать XIII: Конспирация через торрент | UTorrent

% Раздел Тема Автор DL S | L
Фильмы [HD 720p, 1080p] (Хороший звук DUB, MVO) [ 8.76 GB ] XIII: Конспирация / XIII: The Conspiracy [2008 BDRip 720pMVOOriginalSub] Assasinca Скачать
1 | 0

28-11-2019 20:33  

Отключить всю рекламу на сайте

    Дорогой пользователь! Огромная просьба, поблагодарите релизера, оцените раздачу и оставьте свои комментарий, если Вы скачали XIII: Конспирация через торрент бесплатно! Внесите свою лепту в развитие PiratBit!
    Комментировать посты могут только пользователи прошедшие не сложную регистрацию
    Показать сообщения:    

    XIII: Конспирация через торрент
    Скачать бесплатно XIII: Конспирация
    XIII: Конспирация скачать торрент
    XIII: Конспирация смотреть онлайн
    Cкачать фильм XIII: Конспирация бесплатно
    XIII: Конспирация скачать торрент в хорошем качестве
    XIII: Конспирация смотреть онлайн бесплатно в хорошем качестве


    Вы не можете начинать темы
    Вы не можете отвечать на сообщения
    Вы не можете редактировать свои сообщения
    Вы не можете удалять свои сообщения
    Вы не можете голосовать в опросах
    Вы не можете прикреплять файлы к сообщениям
    Вы можете скачивать файлы