1 сезон

1 сезон

iTunes

1

iTunes

Кинопоиск HD

iTunes

13

1 сезон

RePack

30

Deluxe

ВАЖНО

ИГРА 18+

pack

RePack

MK11
pack

Легкие деньги

RePack

jed

RePack

fifa19

RePack

RDR2

RePack

NEED FOR SPEED™ PAYBACK

4 сезон

9 сезон

Бесстыжие 9 сезон

Все сериалы

все сериалы на PB.wtf

RePack

FAR CRY 5
  
Magnet ссылка

Хэллоуин 2007 / Halloween (Роб Зомби) [2007, ужасы , BDRip,Дубляж] piratbit.pw

Хэллоуин 2007 через торрент piratbit.pw

Размер: 1.45 GB | Добавлен: 7 лет 8 мес. назад | Торрент скачан:70 раз
Скачать  

02-09-2013 17:12 Хэллоуин 2007 Скачать торрент  

Хэллоуин 2007
Halloween
Год выпуска: 2007
Страны: США
Жанры: ужасы
Продолжительность: 02:01:30
Перевод: Профессиональный (дублированный)

Режиссер: Роб Зомби
Сценарий: Роб Зомби, Джон Карпентер, Дебра Хилл
Продюсер: Малек Аккад, Энди Гулд, Роб Зомби, ...

Бюджет: $15 000 000
Сборы в США: $58 272 029
Сборы в мире: + $20 197 855 = $78 469 884
Сборы в России: $1 625 002
Зрители: США 8.47 млн , Италия 364.6 тыс. , Великобритания 361.1 тыс.
Премьера (мир): 31 августа 2007, ...
Премьера (РФ): 25 октября 2007, «West»
Релиз на DVD: 26 февраля 2008, «West Video», ...
Рейтинг MPAA: Лицам до 17 лет обязательно присутствие взрослого

В ролях: Малкольм МакДауэлл / Malcolm McDowell (Dr. Samuel Loomis), Скаут Тэйлор-Комптон / Scout Taylor-Compton (Laurie Strode), Тайлер Мэйн / Tyler Mane (Michael Myers), Дег Ферч / Daeg Faerch (Michael Myers, age 10), Шери Мун Зомби / Sheri Moon Zombie (Deborah Myers), Уильям Форсайт / William Forsythe (Ronnie White), Даниэль Харрис / Danielle Harris (Annie Brackett), Кристина Клебе / Kristina Klebe (Lynda Van Der Klok)


Описание: Римейк фильма Джона Карпентера 1978 года. На этот раз нам предлагают взглянуть на судьбу убийцы Майкла Майерса под другим углом. Что же толкнуло его на путь насилия и послужило причиной длинной череды кровавых событий последующих лет?



Качество: BDRip
Формат: AVI
Видео кодек: XviD
Аудио кодек: AC3
Видео: 720x304 (2.35:1), 23.976 fps, XviD, 1 512 Kbps
Аудио: Аудио #1: AC3, 192 Kbps, 48.0 KHz, 2 ch

Код:

General
Complete name                    : Halloween.2007.avi
Format                           : AVI
Format/Info                      : Audio Video Interleave
File size                        : 1.45 GiB
Duration                         : 2h 1mn
Overall bit rate                 : 1 713 Kbps
Movie name                       : Halloween.2007.BDRip
Director                         : rip by maygli
Writing application              : VirtualDubModRus 1.5.10.2 (build 2542/release)

Video
ID                               : 0
Format                           : MPEG-4 Visual
Format profile                   : Advanced Simple@L5
Format settings, BVOP            : Yes
Format settings, QPel            : No
Format settings, GMC             : No warppoints
Format settings, Matrix          : Custom
Muxing mode                      : Packed bitstream
Codec ID                         : XVID
Codec ID/Hint                    : XviD
Duration                         : 2h 1mn
Bit rate                         : 1 512 Kbps
Width                            : 720 pixels
Height                           : 304 pixels
Display aspect ratio             : 2.35:1
Frame rate                       : 23.976 fps
Color space                      : YUV
Chroma subsampling               : 4:2:0
Bit depth                        : 8 bits
Scan type                        : Progressive
Bits/(Pixel*Frame)               : 0.288
Stream size                      : 1.28 GiB (88%)
Writing library                  : XviD 65

Audio
ID                               : 1
Format                           : AC-3
Format/Info                      : Audio Coding 3
Mode extension                   : CM (complete main)
Codec ID                         : 2000
Duration                         : 2h 1mn
Bit rate mode                    : Constant
Bit rate                         : 192 Kbps
Channel(s)                       : 2 channels
Channel positions                : Front: L R
Sampling rate                    : 48.0 KHz
Bit depth                        : 16 bits
Stream size                      : 167 MiB (11%)
Alignment                        : Split accross interleaves
Interleave, duration             : 42 ms (1.00 video frame)
Interleave, preload duration     : 500 ms
Title                            : Дубляж






piratbit.pw



Скачать Хэллоуин 2007 через торрент http://i59.fastpic.ru/big/2013/0902/c4/898872fdcac11f54fb63e5d4874587c4.jpg Скачать фильм Хэллоуин 2007 через торрент бесплантно в хорошем качестве Описание: Римейк фильма Джона Карпентера 1978 года. На этот раз нам предлагают взглянуть на судьбу убийцы Майкла Майерса под другим углом. ... 9.9 10 7
Info! Золотая раздача, скачанное не засчитывается.
Торрент: Зарегистрирован [2013-09-02 17:12] · скачан: 70 раз
Статус: √ проверено
Размер: 1.45 GB
Как cкачать? Как скачать Хэллоуин 2007 через торрент | UTorrent

% Раздел Тема Автор DL S | L
Фильмы 2006-2008 [ 2.18 GB ] Хэллоуин / Halloween [Unrated Director's Cut] [2007 BDRip лицензия] Артронах Скачать
1 | 0
Фильмы 2006-2008 [ 1.37 GB ] Хэллоуин / Halloween [2007 DVDRip] tyry999 Скачать
1 | 0

28-11-2019 20:33  

Отключить всю рекламу на сайте

02-09-2013 17:14 Хэллоуин 2007 Скачать торрент  

Классный фильм. Всем советую посмотреть!!!!!!)))))piratbit.pw



02-09-2013 17:58 Хэллоуин 2007 Скачать торрент  

Качество хорошее, спасибо автору за данный фильм.piratbit.pw



    Дорогой пользователь! Огромная просьба, поблагодарите релизера, оцените раздачу и оставьте свои комментарий, если Вы скачали Хэллоуин 2007 через торрент бесплатно! Внесите свою лепту в развитие PiratBit!
    Комментировать посты могут только пользователи прошедшие не сложную регистрацию
    Показать сообщения:    

    Хэллоуин 2007 через торрент
    Скачать бесплатно Хэллоуин 2007
    Хэллоуин 2007 скачать торрент
    Хэллоуин 2007 смотреть онлайн
    Cкачать фильм Хэллоуин 2007 бесплатно
    Хэллоуин 2007 скачать торрент в хорошем качестве
    Хэллоуин 2007 смотреть онлайн бесплатно в хорошем качестве


    Вы не можете начинать темы
    Вы не можете отвечать на сообщения
    Вы не можете редактировать свои сообщения
    Вы не можете удалять свои сообщения
    Вы не можете голосовать в опросах
    Вы не можете прикреплять файлы к сообщениям
    Вы можете скачивать файлы